<?xml version="1.0" standalone="no"?>
<!DOCTYPE svg PUBLIC "-//W3C//DTD SVG 1.1//EN" "http://www.w3.org/Graphics/SVG/1.1/DTD/svg11.dtd" >
<svg xmlns="http://www.w3.org/2000/svg" xmlns:xlink="http://www.w3.org/1999/xlink" version="1.1">
<metadata>
Created by FontForge 20190801 at Mon Oct 25 14:33:40 2021
 By www-data
Copyright 2011 The Montserrat Project Authors (https://github.com/JulietaUla/Montserrat)
</metadata>
<defs>
<font id="MontserratSemiBold" horiz-adv-x="0" >
  <font-face 
    font-family="MontserratSemiBold"
    font-weight="600"
    font-stretch="normal"
    units-per-em="1000"
    panose-1="0 0 0 0 0 0 0 0 0 0"
    ascent="800"
    descent="-200"
    x-height="534"
    cap-height="700"
    bbox="-198 -265 1645 1064"
    underline-thickness="50"
    underline-position="-125"
    unicode-range="U+000D-FB02"
  />
<missing-glyph horiz-adv-x="587" 
d="M40 0v700h507v-700h-507zM120 70h347v560h-347v-560z" />
    <glyph glyph-name="fi" unicode="fi" horiz-adv-x="662" 
d="M99 0v564q0 84 49.5 134.5t141.5 50.5q33 0 62.5 -7t49.5 -22l-34 -94q-14 11 -32 16.5t-37 5.5q-39 0 -59 -21.5t-20 -64.5v-60l4 -56v-446h-125zM11 430v100h356v-100h-356zM455 0v534h125v-534h-125zM518 622q-35 0 -57.5 22t-22.5 53q0 32 22.5 53.5t57.5 21.5
t57.5 -20.5t22.5 -51.5q0 -33 -22 -55.5t-58 -22.5z" />
    <glyph glyph-name="fl" unicode="fl" horiz-adv-x="662" 
d="M99 0v564q0 84 49.5 134.5t141.5 50.5q33 0 62.5 -7t49.5 -22l-34 -94q-14 11 -32 16.5t-37 5.5q-39 0 -59 -21.5t-20 -64.5v-60l4 -56v-446h-125zM11 430v100h356v-100h-356zM455 0v742h125v-742h-125z" />
    <glyph glyph-name=".notdef" horiz-adv-x="587" 
d="M40 0v700h507v-700h-507zM120 70h347v560h-347v-560z" />
    <glyph glyph-name=".null" 
 />
    <glyph glyph-name="nonmarkingreturn" horiz-adv-x="333" 
 />
    <glyph glyph-name="NULL" 
 />
    <glyph glyph-name="NULL" 
 />
    <glyph glyph-name="CR" unicode="&#xd;" horiz-adv-x="276" 
 />
    <glyph glyph-name="space" unicode=" " horiz-adv-x="276" 
 />
    <glyph glyph-name="exclam" unicode="!" horiz-adv-x="278" 
d="M90 232l-24 468h148l-25 -468h-99zM140 -7q-35 0 -58 23t-23 55t23 54.5t58 22.5t57 -22.5t22 -54.5t-22 -55t-57 -23z" />
    <glyph glyph-name="quotedbl" unicode="&#x22;" horiz-adv-x="413" 
d="M64 423l-8 277h108l-9 -277h-91zM257 423l-8 277h108l-9 -277h-91z" />
    <glyph glyph-name="numbersign" unicode="#" horiz-adv-x="711" 
d="M397 0l86 700h91l-86 -700h-91zM23 170v91h632v-91h-632zM137 0l87 700h91l-87 -700h-91zM57 439v91h630l1 -91h-631z" />
    <glyph glyph-name="dollar" unicode="$" horiz-adv-x="629" 
d="M280 -120v940h82v-940h-82zM311 -10q-82 0 -157 23.5t-119 60.5l45 101q42 -33 104 -55t127 -22q55 0 89 12t50 32.5t16 46.5q0 32 -23 51.5t-59.5 31t-81 21.5t-89 23.5t-81 35t-59.5 57.5t-23 92q0 57 30.5 104.5t93 76t158.5 28.5q63 0 125 -16t108 -46l-41 -101
q-47 28 -97 41.5t-96 13.5q-54 0 -87.5 -13t-49 -34t-15.5 -48q0 -32 22.5 -51.5t59 -30.5t81.5 -21.5t89.5 -23.5t81 -34t59 -57t22.5 -91q0 -56 -30.5 -103.5t-93.5 -76t-159 -28.5z" />
    <glyph glyph-name="percent" unicode="%" horiz-adv-x="860" 
d="M142 0l478 700h98l-478 -700h-98zM200 323q-49 0 -87 24t-59 67t-21 101t21 101t59 67t87 24q51 0 88.5 -24t58.5 -67t21 -101t-21 -101t-58.5 -67t-88.5 -24zM201 393q40 0 62.5 31.5t22.5 90.5t-22.5 90.5t-62.5 31.5t-63.5 -32t-23.5 -90t23.5 -90t63.5 -32zM659 -7
q-49 0 -87 24t-59 67t-21 101t21 101t59 67t87 24q51 0 88.5 -24t58.5 -67t21 -101t-21 -101t-58.5 -67t-88.5 -24zM659 63q40 0 63 32t23 90t-23 90t-63 32q-39 0 -62.5 -31.5t-23.5 -90.5t23.5 -90.5t62.5 -31.5z" />
    <glyph glyph-name="ampersand" unicode="&#x26;" horiz-adv-x="706" 
d="M296 -10q-73 0 -131 24t-91 66t-33 97q0 50 22 90t70 76.5t123 73.5q59 29 92.5 51t47 42t13.5 42q0 30 -21 48.5t-60 18.5q-42 0 -65.5 -20.5t-23.5 -53.5q0 -17 6.5 -33t23.5 -36t49 -51l370 -355l-69 -81l-400 384q-34 33 -55 61t-30 54.5t-9 54.5q0 49 25 86.5t71 58
t107 20.5q57 0 98.5 -18.5t65 -53t23.5 -82.5q0 -42 -21 -77.5t-65.5 -67.5t-118.5 -67q-55 -27 -87 -51t-46 -48t-14 -53t17.5 -51t49.5 -34.5t75 -12.5q64 0 116.5 28.5t88.5 85.5t52 141l101 -33q-21 -101 -72.5 -173.5t-126.5 -111.5t-168 -39z" />
    <glyph glyph-name="quotesingle" unicode="'" horiz-adv-x="220" 
d="M64 423l-8 277h108l-9 -277h-91z" />
    <glyph glyph-name="parenleft" unicode="(" horiz-adv-x="347" 
d="M206 -194q-59 91 -90.5 210.5t-31.5 257.5t31.5 258.5t90.5 209.5h119q-61 -110 -89.5 -224.5t-28.5 -243.5t28.5 -243.5t89.5 -224.5h-119z" />
    <glyph glyph-name="parenright" unicode=")" horiz-adv-x="348" 
d="M141 -194h-119q62 110 90.5 224.5t28.5 243.5t-28.5 243.5t-90.5 224.5h119q60 -89 91 -209.5t31 -258.5t-31 -257.5t-91 -210.5z" />
    <glyph glyph-name="asterisk" unicode="*" horiz-adv-x="416" 
d="M400 613l-134 -74v22l134 -74l-39 -68l-129 75l13 7l1 -143h-76l1 143l13 -7l-128 -75l-40 68l135 74v-22l-135 74l40 69l128 -76l-13 -8l-1 144h76l-1 -144l-13 8l129 76z" />
    <glyph glyph-name="plus" unicode="+" horiz-adv-x="590" 
d="M242 125v450h107v-450h-107zM65 300v100h461v-100h-461z" />
    <glyph glyph-name="comma" unicode="," horiz-adv-x="244" 
d="M49 -151l58 221l17 -74q-35 0 -58.5 21.5t-23.5 58.5q0 38 23.5 60.5t57.5 22.5q35 0 58 -23t23 -60q0 -10 -2 -21.5t-6.5 -26.5t-14.5 -38l-51 -141h-81z" />
    <glyph glyph-name="hyphen" unicode="-" horiz-adv-x="385" 
d="M55 226v104h275v-104h-275z" />
    <glyph glyph-name="period" unicode="." horiz-adv-x="244" 
d="M122 -7q-34 0 -58 23.5t-24 59.5q0 38 24 60.5t58 22.5t58 -22.5t24 -60.5q0 -36 -24 -59.5t-58 -23.5z" />
    <glyph glyph-name="slash" unicode="/" horiz-adv-x="371" 
d="M-30 -100l330 942h112l-330 -942h-112z" />
    <glyph glyph-name="zero" unicode="0" horiz-adv-x="673" 
d="M336 -10q-83 0 -149.5 42t-104.5 122.5t-38 195.5t38 195.5t104.5 122.5t149.5 42q84 0 150 -42t104.5 -122.5t38.5 -195.5t-38.5 -195.5t-104.5 -122.5t-150 -42zM336 103q49 0 85 26.5t56.5 81.5t20.5 139q0 85 -20.5 139.5t-56.5 81t-85 26.5q-47 0 -83.5 -26.5
t-57 -81t-20.5 -139.5q0 -84 20.5 -139t57 -81.5t83.5 -26.5z" />
    <glyph glyph-name="one" unicode="1" horiz-adv-x="381" 
d="M156 0v650l57 -59h-205v109h278v-700h-130z" />
    <glyph glyph-name="two" unicode="2" horiz-adv-x="582" 
d="M35 0v87l278 264q35 33 52 58t22.5 46.5t5.5 40.5q0 48 -33 74.5t-97 26.5q-51 0 -92.5 -18t-71.5 -55l-91 70q41 55 110.5 85.5t155.5 30.5q76 0 132.5 -24.5t87 -69.5t30.5 -107q0 -34 -9 -67.5t-34 -70.5t-73 -83l-239 -227l-27 49h409v-110h-516z" />
    <glyph glyph-name="three" unicode="3" horiz-adv-x="582" 
d="M264 -10q-74 0 -144.5 21.5t-118.5 59.5l56 101q38 -31 92 -50t113 -19q70 0 109 28.5t39 77.5q0 48 -36 76t-116 28h-64v89l200 238l17 -49h-376v109h477v-87l-200 -238l-68 40h39q129 0 193.5 -57.5t64.5 -147.5q0 -59 -30 -109t-91.5 -80.5t-155.5 -30.5z" />
    <glyph glyph-name="four" unicode="4" horiz-adv-x="679" 
d="M34 159v90l345 451h139l-340 -451l-65 20h555v-110h-634zM418 0v159l4 110v141h122v-410h-126z" />
    <glyph glyph-name="five" unicode="5" horiz-adv-x="584" 
d="M276 -10q-74 0 -144.5 21.5t-118.5 59.5l55 101q38 -31 92.5 -50t113.5 -19q69 0 108.5 29t39.5 78q0 33 -16.5 58t-58 38t-113.5 13h-169l36 381h411v-109h-363l68 62l-27 -285l-68 61h141q104 0 167.5 -27.5t93 -76t29.5 -110.5q0 -61 -30 -112t-91.5 -82t-155.5 -31z
" />
    <glyph glyph-name="six" unicode="6" horiz-adv-x="627" 
d="M347 -10q-95 0 -163 40.5t-104 117.5t-36 190q0 120 43.5 203t121 126t178.5 43q53 0 101.5 -11t82.5 -34l-48 -98q-29 19 -62.5 26.5t-70.5 7.5q-99 0 -157 -61t-58 -180q0 -19 1 -44.5t7 -51.5l-40 44q18 41 49.5 68.5t75 41.5t94.5 14q69 0 123 -26.5t86 -75
t32 -113.5q0 -69 -34 -120t-92 -79t-130 -28zM340 92q40 0 71 14.5t48.5 41.5t17.5 63q0 55 -38 87t-102 32q-42 0 -73.5 -15.5t-50 -42.5t-18.5 -62q0 -32 17 -59t49.5 -43t78.5 -16z" />
    <glyph glyph-name="seven" unicode="7" horiz-adv-x="608" 
d="M161 0l289 648l34 -58h-397l62 63v-182h-121v229h544v-87l-272 -613h-139z" />
    <glyph glyph-name="eight" unicode="8" horiz-adv-x="652" 
d="M325 -10q-87 0 -151 26t-99 73.5t-35 111.5t34 108t98 67t153 23t153.5 -23t99 -67.5t34.5 -107.5q0 -64 -35.5 -111.5t-100 -73.5t-151.5 -26zM325 92q72 0 114 30t42 83q0 52 -42 82t-114 30t-113 -30t-41 -82q0 -53 41 -83t113 -30zM325 331q-81 0 -139 21.5t-89.5 63
t-31.5 99.5q0 60 32.5 103.5t91.5 67.5t136 24q78 0 137 -24t92 -67.5t33 -103.5q0 -58 -31.5 -99.5t-90.5 -63t-140 -21.5zM325 411q62 0 98 26.5t36 71.5q0 47 -37 73t-97 26t-96 -26t-36 -73q0 -45 35.5 -71.5t96.5 -26.5z" />
    <glyph glyph-name="nine" unicode="9" horiz-adv-x="627" 
d="M280 710q96 0 163.5 -40.5t103.5 -117.5t36 -190q0 -120 -43.5 -203t-120.5 -126t-179 -43q-53 0 -101 11t-83 34l48 98q29 -19 63 -26.5t70 -7.5q99 0 157 61t58 180q0 19 -1 44.5t-7 51.5l40 -44q-17 -41 -49 -68.5t-75 -41.5t-95 -14q-68 0 -122.5 26.5t-86.5 75
t-32 113.5q0 70 34 120.5t92.5 78.5t129.5 28zM287 608q-40 0 -71 -14.5t-48.5 -41t-17.5 -63.5q0 -55 38 -87t102 -32q42 0 74 15.5t50 43t18 61.5q0 33 -17 59.5t-49 42.5t-79 16z" />
    <glyph glyph-name="colon" unicode=":" horiz-adv-x="244" 
d="M122 374q-34 0 -58 23.5t-24 59.5q0 38 24 60.5t58 22.5t58 -22.5t24 -60.5q0 -36 -24 -59.5t-58 -23.5zM122 -7q-34 0 -58 23.5t-24 59.5q0 38 24 60.5t58 22.5t58 -22.5t24 -60.5q0 -36 -24 -59.5t-58 -23.5z" />
    <glyph glyph-name="semicolon" unicode=";" horiz-adv-x="244" 
d="M122 374q-34 0 -58 23.5t-24 59.5q0 38 24 60.5t58 22.5t58 -22.5t24 -60.5q0 -36 -24 -59.5t-58 -23.5zM49 -151l58 221l17 -74q-35 0 -58.5 21.5t-23.5 58.5q0 38 23.5 60.5t57.5 22.5q35 0 58 -23t23 -60q0 -10 -2 -21.5t-6.5 -26.5t-14.5 -38l-51 -141h-81z" />
    <glyph glyph-name="less" unicode="&#x3c;" horiz-adv-x="590" 
d="M526 117l-461 179v108l461 179v-104l-422 -158v58l422 -158v-104z" />
    <glyph glyph-name="equal" unicode="=" horiz-adv-x="590" 
d="M65 421v100h461v-100h-461zM65 179v100h461v-100h-461z" />
    <glyph glyph-name="greater" unicode="&#x3e;" horiz-adv-x="590" 
d="M65 117v104l422 158v-58l-422 158v104l461 -179v-108z" />
    <glyph glyph-name="question" unicode="?" horiz-adv-x="581" 
d="M222 232q0 37 12 65t31 50t40.5 41t40.5 37t31 38t12 45q0 42 -34 68t-91 26q-55 0 -95.5 -20t-67.5 -57l-97 63q42 57 110 89.5t161 32.5q73 0 128 -21.5t86 -62t31 -98.5q0 -40 -12.5 -70t-32 -52.5t-41.5 -42t-41.5 -38.5t-31.5 -41t-12 -52h-127zM286 -7
q-35 0 -57.5 23t-22.5 55t22.5 54.5t57.5 22.5t57 -22.5t22 -54.5t-22 -55t-57 -23z" />
    <glyph glyph-name="at" unicode="@" horiz-adv-x="1034" 
d="M518 -204q-106 0 -193 34t-150 96t-97 145.5t-34 182.5t34 182t97.5 144t151.5 95t195 34q103 0 189 -32.5t148.5 -91t97 -138.5t34.5 -176q0 -86 -23 -148.5t-65.5 -95.5t-103.5 -33q-62 0 -98.5 37t-36.5 107v57l4 57l-9 130v114h111v-340q0 -38 15.5 -53.5t36.5 -15.5
q27 0 46 21t28.5 62t9.5 99q0 80 -27.5 146t-79 113.5t-122 73t-155.5 25.5q-87 0 -158 -27.5t-122 -77.5t-78.5 -118.5t-27.5 -149.5q0 -83 27 -152t77.5 -118.5t120.5 -77t157 -27.5q46 0 97 10.5t97 33.5l27 -80q-46 -23 -106 -35t-115 -12zM492 -6q-69 0 -123 32.5
t-85.5 90t-31.5 132.5q0 74 31 131.5t85.5 89.5t123.5 32q67 0 117 -29.5t78 -85.5t28 -138t-27 -139t-77 -86.5t-119 -29.5zM513 91q43 0 76 18.5t52.5 54.5t19.5 85q0 50 -19.5 84.5t-52.5 53t-76 18.5q-44 0 -77.5 -19t-52 -54t-18.5 -83q0 -49 18.5 -84t52 -54.5
t77.5 -19.5z" />
    <glyph glyph-name="A" unicode="A" horiz-adv-x="749" 
d="M-5 0l315 700h128l316 -700h-136l-271 631h52l-270 -631h-134zM140 162l35 102h378l35 -102h-448z" />
    <glyph glyph-name="B" unicode="B" horiz-adv-x="761" 
d="M94 0v700h328q126 0 192 -49.5t66 -132.5q0 -56 -26 -95.5t-69.5 -61t-94.5 -21.5l18 36q59 0 106 -21.5t74.5 -62.5t27.5 -102q0 -90 -69 -140t-205 -50h-348zM224 102h210q73 0 112 24t39 77q0 52 -39 76.5t-112 24.5h-220v101h194q68 0 104.5 24t36.5 72
q0 49 -36.5 73t-104.5 24h-184v-496z" />
    <glyph glyph-name="C" unicode="C" horiz-adv-x="727" 
d="M418 -10q-80 0 -148.5 26.5t-119 75t-78.5 114.5t-28 144t28 144t79 114.5t119 75t149 26.5q86 0 157 -29.5t120 -87.5l-84 -79q-38 41 -85 61.5t-102 20.5t-100.5 -18t-79 -51t-52 -78t-18.5 -99t18.5 -99t52 -78t79 -51t100.5 -18t102 20.5t85 62.5l84 -80
q-49 -57 -120 -87t-158 -30z" />
    <glyph glyph-name="D" unicode="D" horiz-adv-x="826" 
d="M94 0v700h306q114 0 200 -44t134 -122t48 -184q0 -105 -48 -183.5t-134 -122.5t-200 -44h-306zM224 110h170q79 0 136.5 30t89 84t31.5 126q0 73 -31.5 126.5t-89 83.5t-136.5 30h-170v-480z" />
    <glyph glyph-name="E" unicode="E" horiz-adv-x="670" 
d="M214 409h348v-107h-348v107zM224 109h395v-109h-525v700h511v-109h-381v-482z" />
    <glyph glyph-name="F" unicode="F" horiz-adv-x="637" 
d="M213 378h349v-110h-349v110zM224 0h-130v700h511v-109h-381v-591z" />
    <glyph glyph-name="G" unicode="G" horiz-adv-x="772" 
d="M421 -10q-82 0 -150.5 26.5t-119.5 75t-79 114.5t-28 144t28 144t79.5 114.5t120.5 75t151 26.5q89 0 160.5 -29t120.5 -85l-82 -80q-41 41 -88.5 60.5t-104.5 19.5q-55 0 -102 -18t-81 -51t-52.5 -78t-18.5 -99q0 -53 18.5 -98t52.5 -78.5t80 -51.5t102 -18
q52 0 100.5 16.5t92.5 55.5l74 -97q-55 -44 -127.5 -66.5t-146.5 -22.5zM572 96v262h123v-279z" />
    <glyph glyph-name="H" unicode="H" horiz-adv-x="810" 
d="M586 700h130v-700h-130v700zM224 0h-130v700h130v-700zM596 300h-383v111h383v-111z" />
    <glyph glyph-name="I" unicode="I" horiz-adv-x="319" 
d="M94 0v700h130v-700h-130z" />
    <glyph glyph-name="J" unicode="J" horiz-adv-x="527" 
d="M203 -10q-67 0 -123.5 26t-92.5 75l74 89q29 -40 63.5 -60t75.5 -20q109 0 109 129v362h-249v109h379v-464q0 -124 -60.5 -185t-175.5 -61z" />
    <glyph glyph-name="K" unicode="K" horiz-adv-x="729" 
d="M210 165l-7 154l367 381h146l-305 -324l-72 -79zM94 0v700h130v-700h-130zM582 0l-268 319l86 95l334 -414h-152z" />
    <glyph glyph-name="L" unicode="L" horiz-adv-x="599" 
d="M94 0v700h130v-590h366v-110h-496z" />
    <glyph glyph-name="M" unicode="M" horiz-adv-x="955" 
d="M94 0v700h107l306 -511h-56l301 511h107l1 -700h-123l-1 507h26l-256 -427h-58l-260 427h30v-507h-124z" />
    <glyph glyph-name="N" unicode="N" horiz-adv-x="810" 
d="M94 0v700h107l439 -539h-53v539h129v-700h-107l-439 539h53v-539h-129z" />
    <glyph glyph-name="O" unicode="O" horiz-adv-x="842" 
d="M422 -10q-82 0 -151 27t-120 75.5t-79 114t-28 143.5t28 143.5t79 114t120 75.5t150 27q82 0 150.5 -27t119.5 -75.5t79 -114t28 -143.5t-28 -144t-79 -114t-119.5 -75t-149.5 -27zM421 104q53 0 98 18t78 51.5t51.5 78t18.5 98.5t-18.5 98.5t-51.5 78t-78 51.5t-98 18
t-97.5 -18t-78 -51.5t-52 -78t-18.5 -98.5q0 -53 18.5 -98t51.5 -78.5t78 -51.5t98 -18z" />
    <glyph glyph-name="P" unicode="P" horiz-adv-x="726" 
d="M94 0v700h288q93 0 159.5 -30t102.5 -86t36 -133t-36 -133t-102.5 -86t-159.5 -30h-216l58 61v-263h-130zM224 249l-58 63h210q86 0 129.5 36.5t43.5 102.5q0 67 -43.5 103t-129.5 36h-210l58 64v-405z" />
    <glyph glyph-name="Q" unicode="Q" horiz-adv-x="842" 
d="M422 -10q-82 0 -151 27t-120 75.5t-79 114t-28 143.5t28 143.5t79 114t120 75.5t150 27q82 0 150.5 -27t119.5 -75t79 -114t28 -144t-28 -144t-79 -114t-119.5 -75t-149.5 -27zM650 -153q-37 0 -71.5 8.5t-68 28t-69.5 51t-79 77.5l138 36q28 -37 53.5 -59.5t49.5 -32.5
t50 -10q69 0 120 56l60 -72q-70 -83 -183 -83zM421 104q53 0 98 18t78 51.5t51.5 78.5t18.5 98q0 54 -18.5 98.5t-51.5 78t-78 51.5t-98 18t-98 -18t-78 -51.5t-51.5 -78t-18.5 -98.5q0 -53 18.5 -98t51.5 -78.5t78 -51.5t98 -18z" />
    <glyph glyph-name="R" unicode="R" horiz-adv-x="731" 
d="M94 0v700h288q93 0 159.5 -30t102.5 -86t36 -133t-36 -132.5t-102.5 -85t-159.5 -29.5h-216l58 59v-263h-130zM552 0l-177 254h139l178 -254h-140zM224 249l-58 62h210q86 0 129.5 37t43.5 103q0 67 -43.5 103t-129.5 36h-210l58 64v-405z" />
    <glyph glyph-name="S" unicode="S" horiz-adv-x="629" 
d="M311 -10q-82 0 -157 23.5t-119 60.5l45 101q42 -33 104 -55t127 -22q55 0 89 12t50 32.5t16 46.5q0 32 -23 51.5t-59.5 31t-81 21.5t-89 23.5t-81 35t-59.5 57.5t-23 92q0 57 30.5 104.5t93 76t158.5 28.5q63 0 125 -16t108 -46l-41 -101q-47 28 -97 41.5t-96 13.5
q-54 0 -87.5 -13t-49 -34t-15.5 -48q0 -32 22.5 -51.5t59 -30.5t81.5 -21.5t89.5 -23.5t81 -34t59 -57t22.5 -91q0 -56 -30.5 -103.5t-93.5 -76t-159 -28.5z" />
    <glyph glyph-name="T" unicode="T" horiz-adv-x="602" 
d="M236 0v590h-232v110h594v-110h-232v-590h-130z" />
    <glyph glyph-name="U" unicode="U" horiz-adv-x="789" 
d="M395 -10q-144 0 -225.5 81t-81.5 234v395h130v-390q0 -108 46.5 -157t131.5 -49t131 49t46 157v390h128v-395q0 -153 -81.5 -234t-224.5 -81z" />
    <glyph glyph-name="V" unicode="V" horiz-adv-x="729" 
d="M301 0l-306 700h141l273 -633h-81l276 633h130l-305 -700h-128z" />
    <glyph glyph-name="W" unicode="W" horiz-adv-x="1144" 
d="M259 0l-232 700h135l207 -633h-67l215 633h120l209 -633h-65l212 633h124l-232 -700h-138l-191 571h36l-194 -571h-139z" />
    <glyph glyph-name="X" unicode="X" horiz-adv-x="693" 
d="M9 0l295 406v-98l-281 392h147l209 -290l-60 -1l207 291h141l-279 -385v94l297 -409h-150l-220 308h59l-217 -308h-148z" />
    <glyph glyph-name="Y" unicode="Y" horiz-adv-x="661" 
d="M266 0v277l29 -80l-304 503h139l244 -405h-78l246 405h128l-304 -503l30 80v-277h-130z" />
    <glyph glyph-name="Z" unicode="Z" horiz-adv-x="663" 
d="M41 0v87l452 552l15 -49h-460v110h577v-87l-452 -552l-16 49h481v-110h-597z" />
    <glyph glyph-name="bracketleft" unicode="[" horiz-adv-x="350" 
d="M94 -194v936h239v-100h-114v-736h114v-100h-239z" />
    <glyph glyph-name="backslash" unicode="\" horiz-adv-x="371" 
d="M402 -100h-112l-330 942h112z" />
    <glyph glyph-name="bracketright" unicode="]" horiz-adv-x="350" 
d="M255 -194h-238v100h113v736h-113v100h238v-936z" />
    <glyph glyph-name="asciicircum" unicode="^" horiz-adv-x="591" 
d="M66 142l179 416h102l178 -416h-98l-158 381h53l-158 -381h-98z" />
    <glyph glyph-name="underscore" unicode="_" horiz-adv-x="500" 
d="M0 -76v76h500v-76h-500z" />
    <glyph glyph-name="grave" unicode="`" horiz-adv-x="600" 
d="M276 607l-174 137h147l135 -137h-108z" />
    <glyph glyph-name="a" unicode="a" horiz-adv-x="607" 
d="M411 0v108l-7 23v189q0 55 -33 85.5t-100 30.5q-45 0 -88.5 -14t-73.5 -39l-49 91q43 33 102.5 49.5t123.5 16.5q116 0 179.5 -55.5t63.5 -171.5v-313h-118zM243 -7q-60 0 -105 20.5t-69.5 57t-24.5 82.5q0 45 21.5 81t70.5 57t130 21h155v-83h-146q-64 0 -86 -20.5
t-22 -50.5q0 -34 27 -54t75 -20q46 0 82.5 21t52.5 62l21 -75q-18 -47 -64.5 -73t-117.5 -26z" />
    <glyph glyph-name="b" unicode="b" horiz-adv-x="686" 
d="M378 -7q-68 0 -121 30t-83.5 90.5t-30.5 153.5q0 94 31.5 154t85 89.5t118.5 29.5q79 0 139.5 -34t96 -95t35.5 -144t-35.5 -144t-96 -95.5t-139.5 -34.5zM82 0v742h125v-332l-10 -142l4 -142v-126h-119zM364 100q45 0 80.5 20t56.5 58t21 89q0 52 -21 89.5t-56.5 57.5
t-80.5 20t-81 -20t-57 -57.5t-21 -89.5q0 -51 21 -89t57 -58t81 -20z" />
    <glyph glyph-name="c" unicode="c" horiz-adv-x="581" 
d="M327 -7q-84 0 -149.5 35.5t-102.5 97.5t-37 141q0 80 37 141.5t102.5 96.5t149.5 35q78 0 137.5 -31.5t90.5 -92.5l-96 -56q-24 38 -58.5 56t-74.5 18q-46 0 -83 -20t-58 -57.5t-21 -89.5t21 -89.5t58 -57.5t83 -20q40 0 74.5 18t58.5 56l96 -56q-31 -60 -90.5 -92.5
t-137.5 -32.5z" />
    <glyph glyph-name="d" unicode="d" horiz-adv-x="687" 
d="M308 -7q-77 0 -138.5 34.5t-96.5 95.5t-35 144t35 144t96.5 95t138.5 34q67 0 120 -29.5t84 -89.5t31 -154q0 -93 -30 -153.5t-83 -90.5t-122 -30zM323 100q45 0 80.5 20t57 58t21.5 89q0 52 -21.5 89.5t-57 57.5t-80.5 20t-80.5 -20t-57 -57.5t-21.5 -89.5
q0 -51 21.5 -89t57 -58t80.5 -20zM485 0v126l5 142l-10 142v332h124v-742h-119z" />
    <glyph glyph-name="e" unicode="e" horiz-adv-x="622" 
d="M333 -7q-89 0 -155.5 35.5t-103 97.5t-36.5 141q0 80 35.5 141.5t98 96.5t142.5 35q78 0 139 -34t96 -96t35 -146q0 -8 -0.5 -18t-1.5 -19h-445v83h379l-49 -26q1 46 -19 81t-54.5 55t-79.5 20q-46 0 -80.5 -20t-54 -55.5t-19.5 -83.5v-20q0 -48 22 -85t62 -57t92 -20
q45 0 81 14t64 44l67 -77q-36 -42 -90.5 -64.5t-124.5 -22.5z" />
    <glyph glyph-name="f" unicode="f" horiz-adv-x="369" 
d="M99 0v564q0 84 49.5 134.5t141.5 50.5q33 0 62.5 -7t49.5 -22l-34 -94q-14 11 -32 16.5t-37 5.5q-39 0 -59 -21.5t-20 -64.5v-60l4 -56v-446h-125zM11 430v100h356v-100h-356z" />
    <glyph glyph-name="g" unicode="g" horiz-adv-x="694" 
d="M324 -201q-74 0 -144.5 19.5t-115.5 56.5l56 94q35 -29 88.5 -46.5t108.5 -17.5q88 0 129 40.5t41 121.5v95l10 121l-4 121v130h119v-453q0 -145 -74 -213.5t-214 -68.5zM308 24q-76 0 -137.5 32.5t-97 90.5t-35.5 136q0 77 35.5 135t97 90t137.5 32q68 0 122 -27
t86.5 -84t32.5 -146t-32.5 -146.5t-86.5 -85t-122 -27.5zM327 130q47 0 84 19.5t57.5 54t20.5 79.5t-20.5 79.5t-57.5 53t-84 18.5t-84.5 -18.5t-58 -53t-20.5 -79.5t20.5 -79.5t58 -54t84.5 -19.5z" />
    <glyph glyph-name="h" unicode="h" horiz-adv-x="685" 
d="M385 540q64 0 114.5 -25t79.5 -76.5t29 -132.5v-306h-125v290q0 71 -33.5 106t-93.5 35q-44 0 -78 -18t-52.5 -53.5t-18.5 -89.5v-270h-125v742h125v-352l-27 44q28 51 81.5 78.5t123.5 27.5z" />
    <glyph glyph-name="i" unicode="i" horiz-adv-x="289" 
d="M82 0v534h125v-534h-125zM145 622q-35 0 -57.5 22t-22.5 53q0 32 22.5 53.5t57.5 21.5t57.5 -20.5t22.5 -51.5q0 -33 -22 -55.5t-58 -22.5z" />
    <glyph glyph-name="j" unicode="j" horiz-adv-x="295" 
d="M27 -201q-35 0 -66.5 7.5t-53.5 23.5l36 93q29 -21 73 -21q34 0 53 21.5t19 63.5v547h125v-544q0 -88 -48.5 -139.5t-137.5 -51.5zM150 622q-35 0 -57.5 22t-22.5 53q0 32 22.5 53.5t57.5 21.5t57.5 -20.5t22.5 -51.5q0 -33 -22 -55.5t-58 -22.5z" />
    <glyph glyph-name="k" unicode="k" horiz-adv-x="636" 
d="M184 119l3 157l279 258h150l-237 -238l-66 -55zM82 0v742h125v-742h-125zM485 0l-195 241l79 100l268 -341h-152z" />
    <glyph glyph-name="l" unicode="l" horiz-adv-x="289" 
d="M82 0v742h125v-742h-125z" />
    <glyph glyph-name="m" unicode="m" horiz-adv-x="1053" 
d="M756 540q64 0 113.5 -25t77.5 -76.5t28 -132.5v-306h-125v290q0 71 -31 106t-89 35q-41 0 -72.5 -18t-49 -53t-17.5 -89v-271h-125v290q0 71 -31 106t-89 35q-41 0 -72.5 -18t-49 -53t-17.5 -89v-271h-125v534h119v-142l-21 42q27 52 78.5 79t117.5 27q75 0 130.5 -37
t73.5 -112l-49 17q26 60 86 96t139 36z" />
    <glyph glyph-name="n" unicode="n" horiz-adv-x="685" 
d="M385 540q64 0 114.5 -25t79.5 -76.5t29 -132.5v-306h-125v290q0 71 -33.5 106t-93.5 35q-44 0 -78 -18t-52.5 -53.5t-18.5 -89.5v-270h-125v534h119v-144l-21 44q28 51 81.5 78.5t123.5 27.5z" />
    <glyph glyph-name="o" unicode="o" horiz-adv-x="645" 
d="M322 -7q-82 0 -146 35.5t-101 97.5t-37 141q0 80 37 141.5t101 96.5t146 35q83 0 147.5 -35t101 -96t36.5 -142q0 -79 -36.5 -141t-101 -97.5t-147.5 -35.5zM322 100q46 0 82 20t56.5 58t20.5 89q0 52 -20.5 89.5t-56.5 57.5t-81 20q-46 0 -81.5 -20t-56.5 -57.5
t-21 -89.5q0 -51 21 -89t56.5 -58t80.5 -20z" />
    <glyph glyph-name="p" unicode="p" horiz-adv-x="686" 
d="M378 -7q-65 0 -118.5 30t-85 90.5t-31.5 153.5q0 94 30.5 154t83.5 89.5t121 29.5q79 0 139.5 -34t96 -95t35.5 -144t-35.5 -144.5t-96 -95.5t-139.5 -34zM82 -194v728h119v-126l-4 -142l10 -142v-318h-125zM364 100q45 0 80.5 20t56.5 58t21 89q0 52 -21 89.5
t-56.5 57.5t-80.5 20t-81 -20t-57 -57.5t-21 -89.5q0 -51 21 -89t57 -58t81 -20z" />
    <glyph glyph-name="q" unicode="q" horiz-adv-x="686" 
d="M308 -7q-77 0 -138.5 34t-96.5 95.5t-35 144.5t35 144t96.5 95t138.5 34q69 0 121.5 -29.5t83 -89.5t30.5 -154q0 -93 -31.5 -153.5t-84.5 -90.5t-119 -30zM322 100q45 0 81 20t57 58t21 89q0 52 -21 89.5t-57 57.5t-81 20t-80.5 -20t-56.5 -57.5t-21 -89.5q0 -51 21 -89
t56.5 -58t80.5 -20zM479 -194v318l10 142l-4 142v126h119v-728h-125z" />
    <glyph glyph-name="r" unicode="r" horiz-adv-x="420" 
d="M82 0v534h119v-147l-14 43q24 54 75.5 82t128.5 28v-119q-8 2 -15 2.5t-14 0.5q-71 0 -113 -41.5t-42 -123.5v-259h-125z" />
    <glyph glyph-name="s" unicode="s" horiz-adv-x="515" 
d="M247 -7q-67 0 -128.5 17.5t-97.5 42.5l48 95q36 -23 86 -38t100 -15q59 0 85.5 16t26.5 43q0 22 -18 33.5t-47 17.5t-64.5 11t-71 13.5t-64.5 25t-47 44.5t-18 74q0 51 29 88.5t81.5 58t124.5 20.5q54 0 109 -12t91 -34l-48 -95q-38 23 -76.5 31.5t-76.5 8.5
q-57 0 -84.5 -17t-27.5 -43q0 -24 18 -36t47 -19t64.5 -11.5t70.5 -13.5t64.5 -24.5t47.5 -43.5t18 -73q0 -50 -29.5 -87t-83.5 -57.5t-129 -20.5z" />
    <glyph glyph-name="t" unicode="t" horiz-adv-x="424" 
d="M283 -7q-88 0 -136 45.5t-48 134.5v479h125v-476q0 -38 19.5 -59t54.5 -21q42 0 70 22l35 -89q-22 -18 -54 -27t-66 -9zM11 430v100h356v-100h-356z" />
    <glyph glyph-name="u" unicode="u" horiz-adv-x="681" 
d="M308 -7q-68 0 -120 25.5t-81 78t-29 132.5v305h125v-288q0 -72 32.5 -107.5t92.5 -35.5q44 0 76.5 18t51 54t18.5 89v270h125v-534h-119v144l21 -44q-27 -52 -79 -79.5t-114 -27.5z" />
    <glyph glyph-name="v" unicode="v" horiz-adv-x="578" 
d="M224 0l-229 534h130l197 -471h-64l204 471h120l-229 -534h-129z" />
    <glyph glyph-name="w" unicode="w" horiz-adv-x="919" 
d="M200 0l-196 534h118l168 -471h-56l176 471h105l171 -471h-55l173 471h111l-197 -534h-120l-156 417h37l-159 -417h-120z" />
    <glyph glyph-name="x" unicode="x" horiz-adv-x="573" 
d="M9 0l235 306l-2 -67l-224 295h139l157 -210h-53l158 210h135l-226 -295l1 67l234 -306h-141l-165 223l52 -7l-162 -216h-138z" />
    <glyph glyph-name="y" unicode="y" horiz-adv-x="578" 
d="M126 -201q-39 0 -78 13t-65 36l50 92q19 -17 43 -27t49 -10q34 0 55 17t39 57l31 70l10 15l202 472h120l-250 -577q-25 -60 -55.5 -95t-68 -49t-82.5 -14zM236 -19l-241 553h130l196 -461z" />
    <glyph glyph-name="z" unicode="z" horiz-adv-x="532" 
d="M38 0v79l329 398l23 -43h-346v100h446v-79l-329 -398l-25 43h363v-100h-461z" />
    <glyph glyph-name="braceleft" unicode="{" horiz-adv-x="370" 
d="M303 -194q-84 0 -127 42t-43 121v206q0 25 -12 36.5t-33 11.5h-33v102h33q21 0 33 12t12 36v206q0 80 43 121.5t127 41.5h50v-100h-21q-37 0 -55.5 -20t-18.5 -56v-190q0 -40 -10 -62t-31.5 -32.5t-55.5 -15.5v16q34 -4 55.5 -15t31.5 -33t10 -62v-190q0 -36 18.5 -56
t55.5 -20h21v-100h-50z" />
    <glyph glyph-name="bar" unicode="|" horiz-adv-x="303" 
d="M94 -194v936h115v-936h-115z" />
    <glyph glyph-name="braceright" unicode="}" horiz-adv-x="370" 
d="M67 -194h-50v100h21q38 0 56.5 20t18.5 56v190q0 40 10.5 62t31.5 33t54 15v-16q-33 5 -54 15.5t-31.5 32.5t-10.5 62v190q0 36 -18.5 56t-56.5 20h-21v100h50q85 0 128 -41.5t43 -121.5v-206q0 -24 12 -36t32 -12h34v-102h-34q-20 0 -32 -11.5t-12 -36.5v-206
q0 -79 -43 -121t-128 -42z" />
    <glyph glyph-name="asciitilde" unicode="~" horiz-adv-x="590" 
d="M396 258q-36 0 -63 14t-49.5 32t-42 32t-41.5 14q-30 0 -47 -22.5t-19 -61.5h-80q2 90 41 134t99 44q36 0 63.5 -14.5t49.5 -32.5t42 -32t41 -14q31 0 48.5 23t18.5 62h79q-1 -90 -40 -134t-100 -44z" />
    <glyph glyph-name="uni00A0" unicode="&#xa0;" horiz-adv-x="276" 
 />
    <glyph glyph-name="exclamdown" unicode="&#xa1;" horiz-adv-x="278" 
d="M189 302l25 -456h-148l24 456h99zM140 540q35 0 57 -22.5t22 -55.5q0 -31 -22 -53.5t-57 -22.5t-58 22.5t-23 53.5q0 33 23 55.5t58 22.5z" />
    <glyph glyph-name="cent" unicode="&#xa2;" horiz-adv-x="581" 
d="M278 -120v774h81v-774h-81zM327 -7q-84 0 -149.5 35.5t-102.5 97.5t-37 141q0 80 37 141.5t102.5 96.5t149.5 35q78 0 137.5 -31.5t90.5 -92.5l-96 -56q-24 38 -58.5 56t-74.5 18q-46 0 -83 -20t-58 -57.5t-21 -89.5t21 -89.5t58 -57.5t83 -20q40 0 74.5 18t58.5 56
l96 -56q-31 -60 -90.5 -92.5t-137.5 -32.5z" />
    <glyph glyph-name="sterling" unicode="&#xa3;" horiz-adv-x="657" 
d="M135 16v421q0 83 36.5 144.5t106 95t168.5 33.5q61 0 109 -11.5t88 -35.5l-41 -106q-33 22 -74.5 30.5t-88.5 8.5q-86 0 -130 -40t-44 -118v-422h-130zM30 0v109h596v-109h-596zM30 309v82h488v-82h-488z" />
    <glyph glyph-name="currency" unicode="&#xa4;" horiz-adv-x="700" 
d="M142 452l-114 113l71 75l114 -113zM99 -5l-71 75l114 113l71 -75zM600 -5l-114 113l71 75l114 -113zM557 452l-71 75l114 113l71 -75zM350 59q-55 0 -103.5 20t-85 56t-57.5 83.5t-21 101.5t21 101.5t57.5 83.5t85 56.5t103.5 20.5q56 0 104.5 -20.5t85 -56.5t57.5 -83.5
t21 -101.5t-21 -101.5t-57.5 -83.5t-85 -56t-104.5 -20zM350 160q46 0 84 21.5t61.5 58t23.5 79.5q0 45 -23.5 82t-61.5 58.5t-84 21.5t-84 -21.5t-60.5 -58.5t-22.5 -82q0 -43 22.5 -79.5t60.5 -58t84 -21.5z" />
    <glyph glyph-name="yen" unicode="&#xa5;" horiz-adv-x="721" 
d="M296 0v305l29 -84l-334 479h138l275 -394h-81l276 394h131l-334 -479l30 84v-305h-130zM97 104v70h528v-70h-528zM97 242v70h528v-70h-528z" />
    <glyph glyph-name="brokenbar" unicode="&#xa6;" horiz-adv-x="303" 
d="M94 392v350h115v-350h-115zM94 -194v350h115v-350h-115z" />
    <glyph glyph-name="section" unicode="&#xa7;" horiz-adv-x="511" 
d="M364 147l-76 62q36 7 59 28.5t23 54.5q0 26 -17 41.5t-45.5 24.5t-62 17t-67 18t-62 26.5t-45.5 44.5t-17 72q0 51 28 89t82.5 60t129.5 22q31 0 67 -5.5t69.5 -16.5t55.5 -27l-37 -91q-37 23 -78 33.5t-85 10.5q-61 0 -91 -18.5t-30 -52.5q0 -23 16.5 -37.5t45 -23
t62 -16t67 -18t61.5 -29t45 -48t17 -74.5q0 -51 -31.5 -90t-83.5 -57zM237 -107q-40 0 -81 8t-75.5 22t-56.5 31l37 93q33 -25 82 -41.5t97 -16.5q50 0 78.5 19t28.5 52q0 25 -17 39.5t-45 23.5t-61.5 16.5t-67.5 17t-61.5 26.5t-45 45.5t-17.5 72.5q0 57 31.5 95.5
t83.5 56.5l74 -62q-35 -7 -57.5 -28t-22.5 -54q0 -26 17 -41.5t45.5 -25t62.5 -17t67.5 -17.5t62 -27t45.5 -45.5t17 -72.5q0 -49 -27 -87.5t-77 -60.5t-117 -22z" />
    <glyph glyph-name="dieresis" unicode="&#xa8;" horiz-adv-x="600" 
d="M397 618q-25 0 -42.5 16.5t-17.5 43.5t17.5 44t42.5 17t42.5 -17t17.5 -44t-17.5 -43.5t-42.5 -16.5zM203 618q-25 0 -42.5 16.5t-17.5 43.5t17.5 44t42.5 17t42.5 -17t17.5 -44t-17.5 -43.5t-42.5 -16.5z" />
    <glyph glyph-name="copyright" unicode="&#xa9;" horiz-adv-x="794" 
d="M396 -3q-75 0 -139 27t-112 75.5t-74.5 112.5t-26.5 138t27 138t75 112.5t112.5 75.5t139.5 27t139.5 -26.5t112 -74.5t74 -111.5t26.5 -138.5t-27 -139.5t-75.5 -113t-112.5 -75.5t-139 -27zM395 52q64 0 118 23t94.5 63.5t62.5 95.5t22 118t-22 117t-61.5 94t-93 62.5
t-117.5 22.5t-118.5 -22.5t-94 -63.5t-62 -95t-22.5 -117t22 -117t62 -95t94 -63.5t116 -22.5zM407 146q-61 0 -109 26t-75 72t-27 106t27 106t75 72t109 26q57 0 100.5 -23.5t66.5 -63.5l-73 -48q-17 26 -41 38t-54 12q-32 0 -57.5 -14.5t-41 -41t-15.5 -63.5t15.5 -63.5
t41 -41t57.5 -14.5q30 0 54 12t41 38l73 -46q-23 -41 -66.5 -65t-100.5 -24z" />
    <glyph glyph-name="ordfeminine" unicode="&#xaa;" horiz-adv-x="408" 
d="M268 426v64l-6 12v113q0 35 -20.5 51.5t-61.5 16.5q-29 0 -57 -9t-48 -24l-32 56q27 20 67.5 31.5t79.5 11.5q77 0 118 -34t41 -104v-185h-81zM160 422q-63 0 -95 27.5t-32 68.5q0 42 33 68t108 26h99v-51h-87q-37 0 -53.5 -10.5t-16.5 -29.5q0 -20 17 -30.5t47 -10.5
t51 11t31 31l13 -48q-10 -22 -39.5 -37t-75.5 -15z" />
    <glyph glyph-name="guillemotleft" unicode="&#xab;" horiz-adv-x="535" 
d="M184 74l-142 193l142 194h113l-139 -194l139 -193h-113zM392 74l-142 193l142 194h113l-139 -194l139 -193h-113z" />
    <glyph glyph-name="logicalnot" unicode="&#xac;" horiz-adv-x="590" 
d="M526 401v-277h-107v177h-354v100h461z" />
    <glyph glyph-name="uni00AD" unicode="&#xad;" horiz-adv-x="385" 
d="M55 226v104h275v-104h-275z" />
    <glyph glyph-name="registered" unicode="&#xae;" horiz-adv-x="794" 
d="M396 -3q-75 0 -139 27t-112 75.5t-74.5 112.5t-26.5 138t27 138t75 112.5t112.5 75.5t139.5 27t139.5 -26.5t112 -74.5t74 -111.5t26.5 -138.5t-27 -139.5t-75.5 -113t-112.5 -75.5t-139 -27zM502 153l-98 151h86l98 -151h-86zM395 52q64 0 118 23t94.5 63.5t62.5 95.5
t22 118t-22 117t-61.5 94t-93 62.5t-117.5 22.5t-118.5 -22.5t-94 -63.5t-62 -95t-22.5 -117t22 -117t62 -95t94 -63.5t116 -22.5zM249 153v394h164q78 0 122 -37t44 -100q0 -65 -44 -101t-122 -36h-78v-120h-86zM334 340h74q42 0 65 18.5t23 51.5t-23 51t-65 18h-74v-139z
" />
    <glyph glyph-name="macron" unicode="&#xaf;" horiz-adv-x="600" 
d="M127 638v75h346v-75h-346z" />
    <glyph glyph-name="degree" unicode="&#xb0;" horiz-adv-x="419" 
d="M209 373q-48 0 -86.5 22.5t-61 60.5t-22.5 84q0 47 22.5 85t61 60.5t86.5 22.5q47 0 86 -22.5t61.5 -60.5t22.5 -84q0 -47 -23 -85t-61 -60.5t-86 -22.5zM209 439q29 0 51.5 13.5t35.5 36t13 51.5t-13 52.5t-35.5 36.5t-51.5 13q-28 0 -51 -13t-36.5 -36t-13.5 -53
q0 -29 13.5 -52t36.5 -36t51 -13z" />
    <glyph glyph-name="plusminus" unicode="&#xb1;" horiz-adv-x="590" 
d="M65 0v100h461v-100h-461zM242 197v436h107v-436h-107zM65 365v99h461v-99h-461z" />
    <glyph glyph-name="uni00B2" unicode="&#xb2;" horiz-adv-x="430" 
d="M44 327v56l179 156q33 30 43.5 47.5t10.5 33.5q0 23 -20.5 38.5t-65.5 15.5q-34 0 -61 -11t-43 -33l-63 45q25 34 69 54t105 20q81 0 125 -35t44 -88q0 -30 -14.5 -58t-62.5 -70l-151 -132l-21 32h266v-71h-340z" />
    <glyph glyph-name="uni00B3" unicode="&#xb3;" horiz-adv-x="430" 
d="M201 320q-54 0 -103 14t-76 35l35 67q26 -19 64 -30t80 -11q50 0 74 15.5t24 41.5q0 27 -22.5 42t-70.5 15h-52v58l132 137l13 -33h-261v71h329v-56l-132 -136l-41 25h29q81 0 123.5 -34t42.5 -89q0 -35 -21 -65t-62.5 -48.5t-104.5 -18.5z" />
    <glyph glyph-name="acute" unicode="&#xb4;" horiz-adv-x="600" 
d="M216 607l135 137h147l-174 -137h-108z" />
    <glyph glyph-name="uni00B5" unicode="&#xb5;" horiz-adv-x="686" 
d="M82 -194v728h125v-288q0 -72 33 -107.5t93 -35.5q44 0 76.5 18t51 54t18.5 89v270h125v-534h-117v143l20 -31q-15 -44 -43 -70t-62 -37.5t-68 -11.5q-53 0 -92 21t-61 61l26 43v-312h-125z" />
    <glyph glyph-name="paragraph" unicode="&#xb6;" horiz-adv-x="666" 
d="M227 -100v471q-61 1 -108.5 24t-74.5 64.5t-27 97.5q0 57 28.5 98.5t80.5 64t121 22.5h325v-842h-103v748h-139v-748h-103z" />
    <glyph glyph-name="periodcentered" unicode="&#xb7;" horiz-adv-x="284" 
d="M142 195q-34 0 -58 23t-24 61q0 37 24 60t58 23q36 0 59 -23t23 -60q0 -38 -23 -61t-59 -23z" />
    <glyph glyph-name="cedilla" unicode="&#xb8;" horiz-adv-x="600" 
d="M271 -228q-27 0 -50 5.5t-42 15.5l23 59q16 -8 32.5 -12t35.5 -4q29 0 41 10t12 26q0 15 -12.5 24t-40.5 9h-31l27 102h68l-14 -56q44 -5 65.5 -28.5t21.5 -55.5q0 -44 -37 -69.5t-99 -25.5z" />
    <glyph glyph-name="uni00B9" unicode="&#xb9;" horiz-adv-x="430" 
d="M278 346l-48 52h144v-71h-297v71h158l-48 -52v364l39 -39h-141v71h193v-396z" />
    <glyph glyph-name="ordmasculine" unicode="&#xba;" horiz-adv-x="422" 
d="M212 422q-54 0 -95 21t-65 58t-24 84q0 48 24 84.5t65.5 58t93.5 21.5q54 0 95 -21.5t64.5 -58t23.5 -84.5q0 -47 -23.5 -84t-64.5 -58t-94 -21zM211 493q44 0 70.5 25.5t26.5 67.5t-26.5 67t-70.5 25q-43 0 -70 -25.5t-27 -66.5q0 -42 27 -67.5t70 -25.5z" />
    <glyph glyph-name="guillemotright" unicode="&#xbb;" horiz-adv-x="535" 
d="M143 74h-113l139 193l-139 194h113l142 -194zM351 74h-113l139 193l-139 194h113l142 -194z" />
    <glyph glyph-name="onequarter" unicode="&#xbc;" horiz-adv-x="1039" 
d="M278 304l-48 52h144v-71h-297v71h158l-48 -52v364l39 -39h-141v71h193v-396zM232 0l478 700h97l-478 -700h-97zM626 92v58l195 265h99l-197 -265l-42 13h335v-71h-390zM854 0v92l8 71v77h80v-240h-88z" />
    <glyph glyph-name="onehalf" unicode="&#xbd;" horiz-adv-x="1039" 
d="M278 304l-48 52h144v-71h-297v71h158l-48 -52v364l39 -39h-141v71h193v-396zM232 0l478 700h97l-478 -700h-97zM653 0v56l179 156q33 30 43.5 47.5t10.5 33.5q0 23 -20.5 38.5t-65.5 15.5q-34 0 -61 -11t-43 -33l-63 45q25 34 69 54t105 20q81 0 125 -35t44 -88
q0 -30 -14.5 -58t-62.5 -70l-151 -132l-21 32h266v-71h-340z" />
    <glyph glyph-name="threequarters" unicode="&#xbe;" horiz-adv-x="1039" 
d="M201 278q-54 0 -103 14t-76 35l35 67q26 -19 64 -30t80 -11q50 0 74 15.5t24 41.5q0 27 -22.5 42t-70.5 15h-52v58l132 137l13 -33h-261v71h329v-56l-132 -136l-41 25h29q81 0 123.5 -34t42.5 -89q0 -35 -21 -65t-62.5 -48.5t-104.5 -18.5zM232 0l478 700h97l-478 -700
h-97zM626 92v58l195 265h99l-197 -265l-42 13h335v-71h-390zM854 0v92l8 71v77h80v-240h-88z" />
    <glyph glyph-name="questiondown" unicode="&#xbf;" horiz-adv-x="581" 
d="M306 -164q-74 0 -129 21.5t-85.5 61.5t-30.5 95q0 40 12.5 69t32 51t41 41t41 37t32 39.5t12.5 50.5h127q0 -36 -12 -63.5t-31 -49t-40.5 -40t-40.5 -36.5t-31 -38t-12 -44q0 -37 33.5 -62t91.5 -25q55 0 96 20.5t67 56.5l96 -63q-41 -57 -109 -89.5t-161 -32.5zM295 386
q-34 0 -57 22.5t-23 53.5q0 33 23 55.5t57 22.5q36 0 58 -22.5t22 -55.5q0 -31 -22 -53.5t-58 -22.5z" />
    <glyph glyph-name="Agrave" unicode="&#xc0;" horiz-adv-x="749" 
d="M-5 0l315 700h128l316 -700h-136l-271 631h52l-270 -631h-134zM140 162l35 102h378l35 -102h-448zM350 757l-174 137h147l135 -137h-108z" />
    <glyph glyph-name="Aacute" unicode="&#xc1;" horiz-adv-x="749" 
d="M-5 0l315 700h128l316 -700h-136l-271 631h52l-270 -631h-134zM140 162l35 102h378l35 -102h-448zM290 757l135 137h147l-174 -137h-108z" />
    <glyph glyph-name="Acircumflex" unicode="&#xc2;" horiz-adv-x="749" 
d="M-5 0l315 700h128l316 -700h-136l-271 631h52l-270 -631h-134zM140 162l35 102h378l35 -102h-448zM183 757l134 137h114l134 -137h-103l-136 115h96l-136 -115h-103z" />
    <glyph glyph-name="Atilde" unicode="&#xc3;" horiz-adv-x="749" 
d="M-5 0l315 700h128l316 -700h-136l-271 631h52l-270 -631h-134zM140 162l35 102h378l35 -102h-448zM446 757q-24 0 -43.5 9.5t-35 23t-29.5 23.5t-28 10q-21 0 -34 -16t-15 -44h-67q2 62 30.5 98t77.5 36q24 0 44 -10t35.5 -23t29.5 -23t27 -10q21 0 34.5 15t14.5 42h67
q-1 -58 -30 -94.5t-78 -36.5z" />
    <glyph glyph-name="Adieresis" unicode="&#xc4;" horiz-adv-x="749" 
d="M-5 0l315 700h128l316 -700h-136l-271 631h52l-270 -631h-134zM140 162l35 102h378l35 -102h-448zM471 768q-25 0 -42.5 16.5t-17.5 43.5t17.5 44t42.5 17t42.5 -17t17.5 -44t-17.5 -43.5t-42.5 -16.5zM277 768q-25 0 -42.5 16.5t-17.5 43.5t17.5 44t42.5 17t42.5 -17
t17.5 -44t-17.5 -43.5t-42.5 -16.5z" />
    <glyph glyph-name="Aring" unicode="&#xc5;" horiz-adv-x="749" 
d="M-5 0l315 700h128l316 -700h-136l-271 631h52l-270 -631h-134zM140 162l35 102h378l35 -102h-448zM373 759q-33 0 -59.5 16t-41.5 41.5t-15 56.5q0 32 15.5 58.5t41.5 42t59 15.5q34 0 60.5 -15.5t41.5 -42t15 -58.5q0 -31 -15 -57t-41.5 -41.5t-60.5 -15.5zM373 810
q28 0 46 18t18 45q0 28 -18 46.5t-46 18.5q-26 0 -44.5 -18t-18.5 -47q0 -27 18 -45t45 -18z" />
    <glyph glyph-name="AE" unicode="&#xc6;" horiz-adv-x="1063" 
d="M-5 0l406 700h130v-109h-113l79 56l-368 -647h-134zM187 162l4 102h340v-102h-344zM607 409h348v-107h-349zM617 109h395v-109h-525v700h511v-109h-381v-482z" />
    <glyph glyph-name="Ccedilla" unicode="&#xc7;" horiz-adv-x="727" 
d="M418 -10q-80 0 -148.5 26.5t-119 75t-78.5 114.5t-28 144t28 144t79 114.5t119 75t149 26.5q86 0 157 -29.5t120 -87.5l-84 -79q-38 41 -85 61.5t-102 20.5t-100.5 -18t-79 -51t-52 -78t-18.5 -99t18.5 -99t52 -78t79 -51t100.5 -18t102 20.5t85 62.5l84 -80
q-49 -57 -120 -87t-158 -30zM371 -228q-27 0 -50 5.5t-42 15.5l23 59q16 -8 32.5 -12t35.5 -4q29 0 41 10t12 26q0 15 -12.5 24t-40.5 9h-31l27 102h68l-14 -56q44 -5 65.5 -28.5t21.5 -55.5q0 -44 -37 -69.5t-99 -25.5z" />
    <glyph glyph-name="Egrave" unicode="&#xc8;" horiz-adv-x="670" 
d="M214 409h348v-107h-348v107zM224 109h395v-109h-525v700h511v-109h-381v-482zM327 757l-174 137h147l135 -137h-108z" />
    <glyph glyph-name="Eacute" unicode="&#xc9;" horiz-adv-x="670" 
d="M214 409h348v-107h-348v107zM224 109h395v-109h-525v700h511v-109h-381v-482zM267 757l135 137h147l-174 -137h-108z" />
    <glyph glyph-name="Ecircumflex" unicode="&#xca;" horiz-adv-x="670" 
d="M214 409h348v-107h-348v107zM224 109h395v-109h-525v700h511v-109h-381v-482zM160 757l134 137h114l134 -137h-103l-136 115h96l-136 -115h-103z" />
    <glyph glyph-name="Edieresis" unicode="&#xcb;" horiz-adv-x="670" 
d="M214 409h348v-107h-348v107zM224 109h395v-109h-525v700h511v-109h-381v-482zM448 768q-25 0 -42.5 16.5t-17.5 43.5t17.5 44t42.5 17t42.5 -17t17.5 -44t-17.5 -43.5t-42.5 -16.5zM254 768q-25 0 -42.5 16.5t-17.5 43.5t17.5 44t42.5 17t42.5 -17t17.5 -44t-17.5 -43.5
t-42.5 -16.5z" />
    <glyph glyph-name="Igrave" unicode="&#xcc;" horiz-adv-x="319" 
d="M94 0v700h130v-700h-130zM135 757l-174 137h147l135 -137h-108z" />
    <glyph glyph-name="Iacute" unicode="&#xcd;" horiz-adv-x="319" 
d="M94 0v700h130v-700h-130zM75 757l135 137h147l-174 -137h-108z" />
    <glyph glyph-name="Icircumflex" unicode="&#xce;" horiz-adv-x="319" 
d="M94 0v700h130v-700h-130zM-32 757l134 137h114l134 -137h-103l-136 115h96l-136 -115h-103z" />
    <glyph glyph-name="Idieresis" unicode="&#xcf;" horiz-adv-x="319" 
d="M94 0v700h130v-700h-130zM256 768q-25 0 -42.5 16.5t-17.5 43.5t17.5 44t42.5 17t42.5 -17t17.5 -44t-17.5 -43.5t-42.5 -16.5zM62 768q-25 0 -42.5 16.5t-17.5 43.5t17.5 44t42.5 17t42.5 -17t17.5 -44t-17.5 -43.5t-42.5 -16.5z" />
    <glyph glyph-name="Eth" unicode="&#xd0;" horiz-adv-x="836" 
d="M104 0v700h306q114 0 200 -44t134 -122t48 -184q0 -105 -48 -183.5t-134 -122.5t-200 -44h-306zM234 110h170q79 0 136.5 30t89 84t31.5 126q0 73 -31.5 126.5t-89 83.5t-136.5 30h-170v-480zM6 308v96h416v-96h-416z" />
    <glyph glyph-name="Ntilde" unicode="&#xd1;" horiz-adv-x="810" 
d="M94 0v700h107l439 -539h-53v539h129v-700h-107l-439 539h53v-539h-129zM477 757q-24 0 -43.5 9.5t-35 23t-29.5 23.5t-28 10q-21 0 -34 -16t-15 -44h-67q2 62 30.5 98t77.5 36q24 0 44 -10t35.5 -23t29.5 -23t27 -10q21 0 34.5 15t14.5 42h67q-1 -58 -30 -94.5t-78 -36.5
z" />
    <glyph glyph-name="Ograve" unicode="&#xd2;" horiz-adv-x="842" 
d="M422 -10q-82 0 -151 27t-120 75.5t-79 114t-28 143.5t28 143.5t79 114t120 75.5t150 27q82 0 150.5 -27t119.5 -75.5t79 -114t28 -143.5t-28 -144t-79 -114t-119.5 -75t-149.5 -27zM421 104q53 0 98 18t78 51.5t51.5 78t18.5 98.5t-18.5 98.5t-51.5 78t-78 51.5t-98 18
t-97.5 -18t-78 -51.5t-52 -78t-18.5 -98.5q0 -53 18.5 -98t51.5 -78.5t78 -51.5t98 -18zM397 757l-174 137h147l135 -137h-108z" />
    <glyph glyph-name="Oacute" unicode="&#xd3;" horiz-adv-x="842" 
d="M422 -10q-82 0 -151 27t-120 75.5t-79 114t-28 143.5t28 143.5t79 114t120 75.5t150 27q82 0 150.5 -27t119.5 -75.5t79 -114t28 -143.5t-28 -144t-79 -114t-119.5 -75t-149.5 -27zM421 104q53 0 98 18t78 51.5t51.5 78t18.5 98.5t-18.5 98.5t-51.5 78t-78 51.5t-98 18
t-97.5 -18t-78 -51.5t-52 -78t-18.5 -98.5q0 -53 18.5 -98t51.5 -78.5t78 -51.5t98 -18zM337 757l135 137h147l-174 -137h-108z" />
    <glyph glyph-name="Ocircumflex" unicode="&#xd4;" horiz-adv-x="842" 
d="M422 -10q-82 0 -151 27t-120 75.5t-79 114t-28 143.5t28 143.5t79 114t120 75.5t150 27q82 0 150.5 -27t119.5 -75.5t79 -114t28 -143.5t-28 -144t-79 -114t-119.5 -75t-149.5 -27zM421 104q53 0 98 18t78 51.5t51.5 78t18.5 98.5t-18.5 98.5t-51.5 78t-78 51.5t-98 18
t-97.5 -18t-78 -51.5t-52 -78t-18.5 -98.5q0 -53 18.5 -98t51.5 -78.5t78 -51.5t98 -18zM230 757l134 137h114l134 -137h-103l-136 115h96l-136 -115h-103z" />
    <glyph glyph-name="Otilde" unicode="&#xd5;" horiz-adv-x="842" 
d="M422 -10q-82 0 -151 27t-120 75.5t-79 114t-28 143.5t28 143.5t79 114t120 75.5t150 27q82 0 150.5 -27t119.5 -75.5t79 -114t28 -143.5t-28 -144t-79 -114t-119.5 -75t-149.5 -27zM421 104q53 0 98 18t78 51.5t51.5 78t18.5 98.5t-18.5 98.5t-51.5 78t-78 51.5t-98 18
t-97.5 -18t-78 -51.5t-52 -78t-18.5 -98.5q0 -53 18.5 -98t51.5 -78.5t78 -51.5t98 -18zM493 757q-24 0 -43.5 9.5t-35 23t-29.5 23.5t-28 10q-21 0 -34 -16t-15 -44h-67q2 62 30.5 98t77.5 36q24 0 44 -10t35.5 -23t29.5 -23t27 -10q21 0 34.5 15t14.5 42h67
q-1 -58 -30 -94.5t-78 -36.5z" />
    <glyph glyph-name="Odieresis" unicode="&#xd6;" horiz-adv-x="842" 
d="M422 -10q-82 0 -151 27t-120 75.5t-79 114t-28 143.5t28 143.5t79 114t120 75.5t150 27q82 0 150.5 -27t119.5 -75.5t79 -114t28 -143.5t-28 -144t-79 -114t-119.5 -75t-149.5 -27zM421 104q53 0 98 18t78 51.5t51.5 78t18.5 98.5t-18.5 98.5t-51.5 78t-78 51.5t-98 18
t-97.5 -18t-78 -51.5t-52 -78t-18.5 -98.5q0 -53 18.5 -98t51.5 -78.5t78 -51.5t98 -18zM518 768q-25 0 -42.5 16.5t-17.5 43.5t17.5 44t42.5 17t42.5 -17t17.5 -44t-17.5 -43.5t-42.5 -16.5zM324 768q-25 0 -42.5 16.5t-17.5 43.5t17.5 44t42.5 17t42.5 -17t17.5 -44
t-17.5 -43.5t-42.5 -16.5z" />
    <glyph glyph-name="multiply" unicode="&#xd7;" horiz-adv-x="590" 
d="M99 222l325 329l69 -73l-327 -329zM99 478l67 73l327 -329l-69 -73z" />
    <glyph glyph-name="Oslash" unicode="&#xd8;" horiz-adv-x="842" 
d="M422 -10q-82 0 -151 27t-120 75.5t-79 114t-28 143.5t28 143.5t79 114t120 75.5t150 27q82 0 150.5 -27t119.5 -75.5t79 -114t28 -143.5t-28 -144t-79 -114t-119.5 -75t-149.5 -27zM421 104q53 0 98 18t78 51.5t51.5 78t18.5 98.5t-18.5 98.5t-51.5 78t-78 51.5t-98 18
t-97.5 -18t-78 -51.5t-52 -78t-18.5 -98.5q0 -53 18.5 -98t51.5 -78.5t78 -51.5t98 -18zM75 -70l600 840h93l-600 -840h-93z" />
    <glyph glyph-name="Ugrave" unicode="&#xd9;" horiz-adv-x="789" 
d="M395 -10q-144 0 -225.5 81t-81.5 234v395h130v-390q0 -108 46.5 -157t131.5 -49t131 49t46 157v390h128v-395q0 -153 -81.5 -234t-224.5 -81zM372 757l-174 137h147l135 -137h-108z" />
    <glyph glyph-name="Uacute" unicode="&#xda;" horiz-adv-x="789" 
d="M395 -10q-144 0 -225.5 81t-81.5 234v395h130v-390q0 -108 46.5 -157t131.5 -49t131 49t46 157v390h128v-395q0 -153 -81.5 -234t-224.5 -81zM312 757l135 137h147l-174 -137h-108z" />
    <glyph glyph-name="Ucircumflex" unicode="&#xdb;" horiz-adv-x="789" 
d="M395 -10q-144 0 -225.5 81t-81.5 234v395h130v-390q0 -108 46.5 -157t131.5 -49t131 49t46 157v390h128v-395q0 -153 -81.5 -234t-224.5 -81zM205 757l134 137h114l134 -137h-103l-136 115h96l-136 -115h-103z" />
    <glyph glyph-name="Udieresis" unicode="&#xdc;" horiz-adv-x="789" 
d="M395 -10q-144 0 -225.5 81t-81.5 234v395h130v-390q0 -108 46.5 -157t131.5 -49t131 49t46 157v390h128v-395q0 -153 -81.5 -234t-224.5 -81zM493 768q-25 0 -42.5 16.5t-17.5 43.5t17.5 44t42.5 17t42.5 -17t17.5 -44t-17.5 -43.5t-42.5 -16.5zM299 768
q-25 0 -42.5 16.5t-17.5 43.5t17.5 44t42.5 17t42.5 -17t17.5 -44t-17.5 -43.5t-42.5 -16.5z" />
    <glyph glyph-name="Yacute" unicode="&#xdd;" horiz-adv-x="661" 
d="M266 0v277l29 -80l-304 503h139l244 -405h-78l246 405h128l-304 -503l30 80v-277h-130zM247 757l135 137h147l-174 -137h-108z" />
    <glyph glyph-name="Thorn" unicode="&#xde;" horiz-adv-x="726" 
d="M195 120v110h181q86 0 129.5 36.5t43.5 102.5q0 67 -43.5 103t-129.5 36h-181v110h187q93 0 159.5 -30t102.5 -85.5t36 -133.5q0 -77 -36 -133t-102.5 -86t-159.5 -30h-187zM94 0v700h130v-700h-130z" />
    <glyph glyph-name="germandbls" unicode="&#xdf;" horiz-adv-x="684" 
d="M400 -7q-30 0 -62 4.5t-55 11.5l17 103q20 -7 41 -10t51 -3q40 0 68.5 12.5t44.5 37t16 59.5q0 52 -39 79.5t-103 27.5h-55v103q66 1 104 33.5t38 86.5q0 47 -32 76t-90 29q-64 0 -100.5 -36t-36.5 -106v-501h-125v489q0 86 34.5 144t94 87t133.5 29q76 0 130 -27t83 -73
t29 -104q0 -46 -18 -82t-47.5 -60.5t-64 -38t-69.5 -13.5l33 51q64 0 115.5 -23t81.5 -67t30 -108q0 -66 -31.5 -113.5t-87 -72.5t-128.5 -25z" />
    <glyph glyph-name="agrave" unicode="&#xe0;" horiz-adv-x="607" 
d="M411 0v108l-7 23v189q0 55 -33 85.5t-100 30.5q-45 0 -88.5 -14t-73.5 -39l-49 91q43 33 102.5 49.5t123.5 16.5q116 0 179.5 -55.5t63.5 -171.5v-313h-118zM243 -7q-60 0 -105 20.5t-69.5 57t-24.5 82.5q0 45 21.5 81t70.5 57t130 21h155v-83h-146q-64 0 -86 -20.5
t-22 -50.5q0 -34 27 -54t75 -20q46 0 82.5 21t52.5 62l21 -75q-18 -47 -64.5 -73t-117.5 -26zM273 607l-174 137h147l135 -137h-108z" />
    <glyph glyph-name="aacute" unicode="&#xe1;" horiz-adv-x="607" 
d="M411 0v108l-7 23v189q0 55 -33 85.5t-100 30.5q-45 0 -88.5 -14t-73.5 -39l-49 91q43 33 102.5 49.5t123.5 16.5q116 0 179.5 -55.5t63.5 -171.5v-313h-118zM243 -7q-60 0 -105 20.5t-69.5 57t-24.5 82.5q0 45 21.5 81t70.5 57t130 21h155v-83h-146q-64 0 -86 -20.5
t-22 -50.5q0 -34 27 -54t75 -20q46 0 82.5 21t52.5 62l21 -75q-18 -47 -64.5 -73t-117.5 -26zM213 607l135 137h147l-174 -137h-108z" />
    <glyph glyph-name="acircumflex" unicode="&#xe2;" horiz-adv-x="607" 
d="M411 0v108l-7 23v189q0 55 -33 85.5t-100 30.5q-45 0 -88.5 -14t-73.5 -39l-49 91q43 33 102.5 49.5t123.5 16.5q116 0 179.5 -55.5t63.5 -171.5v-313h-118zM243 -7q-60 0 -105 20.5t-69.5 57t-24.5 82.5q0 45 21.5 81t70.5 57t130 21h155v-83h-146q-64 0 -86 -20.5
t-22 -50.5q0 -34 27 -54t75 -20q46 0 82.5 21t52.5 62l21 -75q-18 -47 -64.5 -73t-117.5 -26zM106 607l134 137h114l134 -137h-103l-136 115h96l-136 -115h-103z" />
    <glyph glyph-name="atilde" unicode="&#xe3;" horiz-adv-x="607" 
d="M411 0v108l-7 23v189q0 55 -33 85.5t-100 30.5q-45 0 -88.5 -14t-73.5 -39l-49 91q43 33 102.5 49.5t123.5 16.5q116 0 179.5 -55.5t63.5 -171.5v-313h-118zM243 -7q-60 0 -105 20.5t-69.5 57t-24.5 82.5q0 45 21.5 81t70.5 57t130 21h155v-83h-146q-64 0 -86 -20.5
t-22 -50.5q0 -34 27 -54t75 -20q46 0 82.5 21t52.5 62l21 -75q-18 -47 -64.5 -73t-117.5 -26zM369 607q-24 0 -43.5 9.5t-35 23t-29.5 23.5t-28 10q-21 0 -34 -16t-15 -44h-67q2 62 30.5 98t77.5 36q24 0 44 -10t35.5 -23t29.5 -23t27 -10q21 0 34.5 15t14.5 42h67
q-1 -58 -30 -94.5t-78 -36.5z" />
    <glyph glyph-name="adieresis" unicode="&#xe4;" horiz-adv-x="607" 
d="M411 0v108l-7 23v189q0 55 -33 85.5t-100 30.5q-45 0 -88.5 -14t-73.5 -39l-49 91q43 33 102.5 49.5t123.5 16.5q116 0 179.5 -55.5t63.5 -171.5v-313h-118zM243 -7q-60 0 -105 20.5t-69.5 57t-24.5 82.5q0 45 21.5 81t70.5 57t130 21h155v-83h-146q-64 0 -86 -20.5
t-22 -50.5q0 -34 27 -54t75 -20q46 0 82.5 21t52.5 62l21 -75q-18 -47 -64.5 -73t-117.5 -26zM394 618q-25 0 -42.5 16.5t-17.5 43.5t17.5 44t42.5 17t42.5 -17t17.5 -44t-17.5 -43.5t-42.5 -16.5zM200 618q-25 0 -42.5 16.5t-17.5 43.5t17.5 44t42.5 17t42.5 -17t17.5 -44
t-17.5 -43.5t-42.5 -16.5z" />
    <glyph glyph-name="aring" unicode="&#xe5;" horiz-adv-x="607" 
d="M411 0v108l-7 23v189q0 55 -33 85.5t-100 30.5q-45 0 -88.5 -14t-73.5 -39l-49 91q43 33 102.5 49.5t123.5 16.5q116 0 179.5 -55.5t63.5 -171.5v-313h-118zM243 -7q-60 0 -105 20.5t-69.5 57t-24.5 82.5q0 45 21.5 81t70.5 57t130 21h155v-83h-146q-64 0 -86 -20.5
t-22 -50.5q0 -34 27 -54t75 -20q46 0 82.5 21t52.5 62l21 -75q-18 -47 -64.5 -73t-117.5 -26zM296 593q-33 0 -59.5 16t-41.5 41.5t-15 56.5q0 32 15.5 58.5t41.5 42t59 15.5q34 0 60.5 -15.5t41.5 -42t15 -58.5q0 -31 -15 -57t-41.5 -41.5t-60.5 -15.5zM296 644q28 0 46 18
t18 45q0 28 -18 46.5t-46 18.5q-26 0 -44.5 -18t-18.5 -47q0 -27 18 -45t45 -18z" />
    <glyph glyph-name="ae" unicode="&#xe6;" horiz-adv-x="993" 
d="M260 -7q-102 0 -159 46t-57 119q0 42 21.5 76.5t70.5 55.5t130 21h154v-82h-145q-63 0 -85.5 -20.5t-22.5 -48.5q0 -36 27.5 -56t76.5 -20q63 0 98 32.5t35 84.5v119q0 55 -33 85.5t-99 30.5q-46 0 -89.5 -14t-73.5 -39l-49 91q43 33 102.5 49.5t122.5 16.5q91 0 147 -34
t76 -100l-59 4q33 61 94.5 95.5t139.5 34.5q58 0 107.5 -19.5t86.5 -55.5t57.5 -86t20.5 -110q0 -12 -0.5 -22t-2.5 -18h-444v82h372l-46 -27q1 52 -21 86t-57 52t-74 18q-38 0 -73.5 -18t-58 -53t-22.5 -88v-20q0 -48 22 -85t61.5 -57t92.5 -20q45 0 80 14t65 44l68 -77
q-37 -43 -92.5 -65t-123.5 -22q-62 0 -116.5 18.5t-95.5 57.5t-65 101l75 -1q-14 -68 -51.5 -106.5t-87 -54t-100.5 -15.5z" />
    <glyph glyph-name="ccedilla" unicode="&#xe7;" horiz-adv-x="581" 
d="M327 -7q-84 0 -149.5 35.5t-102.5 97.5t-37 141q0 80 37 141.5t102.5 96.5t149.5 35q78 0 137.5 -31.5t90.5 -92.5l-96 -56q-24 38 -58.5 56t-74.5 18q-46 0 -83 -20t-58 -57.5t-21 -89.5t21 -89.5t58 -57.5t83 -20q40 0 74.5 18t58.5 56l96 -56q-31 -60 -90.5 -92.5
t-137.5 -32.5zM275 -228q-27 0 -50 5.5t-42 15.5l23 59q16 -8 32.5 -12t35.5 -4q29 0 41 10t12 26q0 15 -12.5 24t-40.5 9h-31l27 102h68l-14 -56q44 -5 65.5 -28.5t21.5 -55.5q0 -44 -37 -69.5t-99 -25.5z" />
    <glyph glyph-name="egrave" unicode="&#xe8;" horiz-adv-x="622" 
d="M333 -7q-89 0 -155.5 35.5t-103 97.5t-36.5 141q0 80 35.5 141.5t98 96.5t142.5 35q78 0 139 -34t96 -96t35 -146q0 -8 -0.5 -18t-1.5 -19h-445v83h379l-49 -26q1 46 -19 81t-54.5 55t-79.5 20q-46 0 -80.5 -20t-54 -55.5t-19.5 -83.5v-20q0 -48 22 -85t62 -57t92 -20
q45 0 81 14t64 44l67 -77q-36 -42 -90.5 -64.5t-124.5 -22.5zM287 607l-174 137h147l135 -137h-108z" />
    <glyph glyph-name="eacute" unicode="&#xe9;" horiz-adv-x="622" 
d="M333 -7q-89 0 -155.5 35.5t-103 97.5t-36.5 141q0 80 35.5 141.5t98 96.5t142.5 35q78 0 139 -34t96 -96t35 -146q0 -8 -0.5 -18t-1.5 -19h-445v83h379l-49 -26q1 46 -19 81t-54.5 55t-79.5 20q-46 0 -80.5 -20t-54 -55.5t-19.5 -83.5v-20q0 -48 22 -85t62 -57t92 -20
q45 0 81 14t64 44l67 -77q-36 -42 -90.5 -64.5t-124.5 -22.5zM227 607l135 137h147l-174 -137h-108z" />
    <glyph glyph-name="ecircumflex" unicode="&#xea;" horiz-adv-x="622" 
d="M333 -7q-89 0 -155.5 35.5t-103 97.5t-36.5 141q0 80 35.5 141.5t98 96.5t142.5 35q78 0 139 -34t96 -96t35 -146q0 -8 -0.5 -18t-1.5 -19h-445v83h379l-49 -26q1 46 -19 81t-54.5 55t-79.5 20q-46 0 -80.5 -20t-54 -55.5t-19.5 -83.5v-20q0 -48 22 -85t62 -57t92 -20
q45 0 81 14t64 44l67 -77q-36 -42 -90.5 -64.5t-124.5 -22.5zM120 607l134 137h114l134 -137h-103l-136 115h96l-136 -115h-103z" />
    <glyph glyph-name="edieresis" unicode="&#xeb;" horiz-adv-x="622" 
d="M333 -7q-89 0 -155.5 35.5t-103 97.5t-36.5 141q0 80 35.5 141.5t98 96.5t142.5 35q78 0 139 -34t96 -96t35 -146q0 -8 -0.5 -18t-1.5 -19h-445v83h379l-49 -26q1 46 -19 81t-54.5 55t-79.5 20q-46 0 -80.5 -20t-54 -55.5t-19.5 -83.5v-20q0 -48 22 -85t62 -57t92 -20
q45 0 81 14t64 44l67 -77q-36 -42 -90.5 -64.5t-124.5 -22.5zM408 618q-25 0 -42.5 16.5t-17.5 43.5t17.5 44t42.5 17t42.5 -17t17.5 -44t-17.5 -43.5t-42.5 -16.5zM214 618q-25 0 -42.5 16.5t-17.5 43.5t17.5 44t42.5 17t42.5 -17t17.5 -44t-17.5 -43.5t-42.5 -16.5z" />
    <glyph glyph-name="igrave" unicode="&#xec;" horiz-adv-x="289" 
d="M82 0v534h125v-534h-125zM121 607l-174 137h147l135 -137h-108z" />
    <glyph glyph-name="iacute" unicode="&#xed;" horiz-adv-x="289" 
d="M82 0v534h125v-534h-125zM61 607l135 137h147l-174 -137h-108z" />
    <glyph glyph-name="icircumflex" unicode="&#xee;" horiz-adv-x="289" 
d="M82 0v534h125v-534h-125zM-21 607l110 137h112l110 -137h-98l-111 115h86l-111 -115h-98z" />
    <glyph glyph-name="idieresis" unicode="&#xef;" horiz-adv-x="289" 
d="M82 0v534h125v-534h-125zM222 619q-25 0 -41.5 17t-16.5 42t16.5 42.5t41.5 17.5q24 0 40.5 -17t16.5 -43t-16.5 -42.5t-40.5 -16.5zM69 619q-25 0 -41.5 17t-16.5 42t16.5 42.5t41.5 17.5q24 0 40.5 -17t16.5 -43t-16.5 -42.5t-40.5 -16.5z" />
    <glyph glyph-name="eth" unicode="&#xf0;" horiz-adv-x="648" 
d="M298 -10q-73 0 -132 28t-93.5 79t-34.5 121q0 69 33.5 119t92 78t129.5 28q56 0 101 -19t77 -54t47 -86l-45 -20q7 26 8.5 52.5t1.5 54.5q0 88 -28.5 145.5t-81.5 87t-127 29.5q-41 0 -77 -6.5t-64 -16.5l-19 102q34 10 74.5 16t87.5 6q110 0 191.5 -44t126.5 -131
t45 -216q0 -109 -37.5 -188t-107 -122t-168.5 -43zM307 92q47 0 81 17.5t52 45.5t18 61q0 36 -19 64.5t-52 44.5t-76 16q-67 0 -107 -34t-40 -91q0 -37 18.5 -65t50.5 -43.5t74 -15.5zM154 469l-30 74l428 168l29 -74z" />
    <glyph glyph-name="ntilde" unicode="&#xf1;" horiz-adv-x="685" 
d="M385 540q64 0 114.5 -25t79.5 -76.5t29 -132.5v-306h-125v290q0 71 -33.5 106t-93.5 35q-44 0 -78 -18t-52.5 -53.5t-18.5 -89.5v-270h-125v534h119v-144l-21 44q28 51 81.5 78.5t123.5 27.5zM417 607q-24 0 -43.5 9.5t-35 23t-29.5 23.5t-28 10q-21 0 -34 -16t-15 -44
h-67q2 62 30.5 98t77.5 36q24 0 44 -10t35.5 -23t29.5 -23t27 -10q21 0 34.5 15t14.5 42h67q-1 -58 -30 -94.5t-78 -36.5z" />
    <glyph glyph-name="ograve" unicode="&#xf2;" horiz-adv-x="645" 
d="M322 -7q-82 0 -146 35.5t-101 97.5t-37 141q0 80 37 141.5t101 96.5t146 35q83 0 147.5 -35t101 -96t36.5 -142q0 -79 -36.5 -141t-101 -97.5t-147.5 -35.5zM322 100q46 0 82 20t56.5 58t20.5 89q0 52 -20.5 89.5t-56.5 57.5t-81 20q-46 0 -81.5 -20t-56.5 -57.5
t-21 -89.5q0 -51 21 -89t56.5 -58t80.5 -20zM297 607l-174 137h147l135 -137h-108z" />
    <glyph glyph-name="oacute" unicode="&#xf3;" horiz-adv-x="645" 
d="M322 -7q-82 0 -146 35.5t-101 97.5t-37 141q0 80 37 141.5t101 96.5t146 35q83 0 147.5 -35t101 -96t36.5 -142q0 -79 -36.5 -141t-101 -97.5t-147.5 -35.5zM322 100q46 0 82 20t56.5 58t20.5 89q0 52 -20.5 89.5t-56.5 57.5t-81 20q-46 0 -81.5 -20t-56.5 -57.5
t-21 -89.5q0 -51 21 -89t56.5 -58t80.5 -20zM237 607l135 137h147l-174 -137h-108z" />
    <glyph glyph-name="ocircumflex" unicode="&#xf4;" horiz-adv-x="645" 
d="M322 -7q-82 0 -146 35.5t-101 97.5t-37 141q0 80 37 141.5t101 96.5t146 35q83 0 147.5 -35t101 -96t36.5 -142q0 -79 -36.5 -141t-101 -97.5t-147.5 -35.5zM322 100q46 0 82 20t56.5 58t20.5 89q0 52 -20.5 89.5t-56.5 57.5t-81 20q-46 0 -81.5 -20t-56.5 -57.5
t-21 -89.5q0 -51 21 -89t56.5 -58t80.5 -20zM130 607l134 137h114l134 -137h-103l-136 115h96l-136 -115h-103z" />
    <glyph glyph-name="otilde" unicode="&#xf5;" horiz-adv-x="645" 
d="M322 -7q-82 0 -146 35.5t-101 97.5t-37 141q0 80 37 141.5t101 96.5t146 35q83 0 147.5 -35t101 -96t36.5 -142q0 -79 -36.5 -141t-101 -97.5t-147.5 -35.5zM322 100q46 0 82 20t56.5 58t20.5 89q0 52 -20.5 89.5t-56.5 57.5t-81 20q-46 0 -81.5 -20t-56.5 -57.5
t-21 -89.5q0 -51 21 -89t56.5 -58t80.5 -20zM393 607q-24 0 -43.5 9.5t-35 23t-29.5 23.5t-28 10q-21 0 -34 -16t-15 -44h-67q2 62 30.5 98t77.5 36q24 0 44 -10t35.5 -23t29.5 -23t27 -10q21 0 34.5 15t14.5 42h67q-1 -58 -30 -94.5t-78 -36.5z" />
    <glyph glyph-name="odieresis" unicode="&#xf6;" horiz-adv-x="645" 
d="M322 -7q-82 0 -146 35.5t-101 97.5t-37 141q0 80 37 141.5t101 96.5t146 35q83 0 147.5 -35t101 -96t36.5 -142q0 -79 -36.5 -141t-101 -97.5t-147.5 -35.5zM322 100q46 0 82 20t56.5 58t20.5 89q0 52 -20.5 89.5t-56.5 57.5t-81 20q-46 0 -81.5 -20t-56.5 -57.5
t-21 -89.5q0 -51 21 -89t56.5 -58t80.5 -20zM418 618q-25 0 -42.5 16.5t-17.5 43.5t17.5 44t42.5 17t42.5 -17t17.5 -44t-17.5 -43.5t-42.5 -16.5zM224 618q-25 0 -42.5 16.5t-17.5 43.5t17.5 44t42.5 17t42.5 -17t17.5 -44t-17.5 -43.5t-42.5 -16.5z" />
    <glyph glyph-name="divide" unicode="&#xf7;" horiz-adv-x="590" 
d="M65 300v100h461v-100h-461zM295 76q-29 0 -49 20.5t-20 51.5q0 32 20 51.5t49 19.5q30 0 50 -19.5t20 -51.5q0 -31 -20 -51.5t-50 -20.5zM295 481q-29 0 -49 20.5t-20 51.5t20 51t49 20q30 0 50 -20t20 -51t-20 -51.5t-50 -20.5z" />
    <glyph glyph-name="oslash" unicode="&#xf8;" horiz-adv-x="645" 
d="M322 -7q-82 0 -146 35.5t-101 97.5t-37 141q0 80 37 141.5t101 96.5t146 35q83 0 147.5 -35t101 -96t36.5 -142q0 -79 -36.5 -141t-101 -97.5t-147.5 -35.5zM322 100q46 0 82 20t56.5 58t20.5 89q0 52 -20.5 89.5t-56.5 57.5t-81 20q-46 0 -81.5 -20t-56.5 -57.5
t-21 -89.5q0 -51 21 -89t56.5 -58t80.5 -20zM66 -71l440 672h70l-440 -672h-70z" />
    <glyph glyph-name="ugrave" unicode="&#xf9;" horiz-adv-x="681" 
d="M308 -7q-68 0 -120 25.5t-81 78t-29 132.5v305h125v-288q0 -72 32.5 -107.5t92.5 -35.5q44 0 76.5 18t51 54t18.5 89v270h125v-534h-119v144l21 -44q-27 -52 -79 -79.5t-114 -27.5zM314 607l-174 137h147l135 -137h-108z" />
    <glyph glyph-name="uacute" unicode="&#xfa;" horiz-adv-x="681" 
d="M308 -7q-68 0 -120 25.5t-81 78t-29 132.5v305h125v-288q0 -72 32.5 -107.5t92.5 -35.5q44 0 76.5 18t51 54t18.5 89v270h125v-534h-119v144l21 -44q-27 -52 -79 -79.5t-114 -27.5zM254 607l135 137h147l-174 -137h-108z" />
    <glyph glyph-name="ucircumflex" unicode="&#xfb;" horiz-adv-x="681" 
d="M308 -7q-68 0 -120 25.5t-81 78t-29 132.5v305h125v-288q0 -72 32.5 -107.5t92.5 -35.5q44 0 76.5 18t51 54t18.5 89v270h125v-534h-119v144l21 -44q-27 -52 -79 -79.5t-114 -27.5zM147 607l134 137h114l134 -137h-103l-136 115h96l-136 -115h-103z" />
    <glyph glyph-name="udieresis" unicode="&#xfc;" horiz-adv-x="681" 
d="M308 -7q-68 0 -120 25.5t-81 78t-29 132.5v305h125v-288q0 -72 32.5 -107.5t92.5 -35.5q44 0 76.5 18t51 54t18.5 89v270h125v-534h-119v144l21 -44q-27 -52 -79 -79.5t-114 -27.5zM435 618q-25 0 -42.5 16.5t-17.5 43.5t17.5 44t42.5 17t42.5 -17t17.5 -44t-17.5 -43.5
t-42.5 -16.5zM241 618q-25 0 -42.5 16.5t-17.5 43.5t17.5 44t42.5 17t42.5 -17t17.5 -44t-17.5 -43.5t-42.5 -16.5z" />
    <glyph glyph-name="yacute" unicode="&#xfd;" horiz-adv-x="578" 
d="M126 -201q-39 0 -78 13t-65 36l50 92q19 -17 43 -27t49 -10q34 0 55 17t39 57l31 70l10 15l202 472h120l-250 -577q-25 -60 -55.5 -95t-68 -49t-82.5 -14zM236 -19l-241 553h130l196 -461zM192 607l135 137h147l-174 -137h-108z" />
    <glyph glyph-name="thorn" unicode="&#xfe;" horiz-adv-x="686" 
d="M378 -7q-65 0 -118.5 30t-85 90.5t-31.5 153.5q0 94 30.5 154t83.5 89.5t121 29.5q79 0 139.5 -34t96 -95t35.5 -144t-35.5 -144.5t-96 -95.5t-139.5 -34zM82 -194v936h125v-334l-10 -142l10 -142v-318h-125zM364 100q45 0 80.5 20t56.5 58t21 89q0 52 -21 89.5
t-56.5 57.5t-80.5 20t-81 -20t-57 -57.5t-21 -89.5q0 -51 21 -89t57 -58t81 -20z" />
    <glyph glyph-name="ydieresis" unicode="&#xff;" horiz-adv-x="578" 
d="M126 -201q-39 0 -78 13t-65 36l50 92q19 -17 43 -27t49 -10q34 0 55 17t39 57l31 70l10 15l202 472h120l-250 -577q-25 -60 -55.5 -95t-68 -49t-82.5 -14zM236 -19l-241 553h130l196 -461zM373 618q-25 0 -42.5 16.5t-17.5 43.5t17.5 44t42.5 17t42.5 -17t17.5 -44
t-17.5 -43.5t-42.5 -16.5zM179 618q-25 0 -42.5 16.5t-17.5 43.5t17.5 44t42.5 17t42.5 -17t17.5 -44t-17.5 -43.5t-42.5 -16.5z" />
    <glyph glyph-name="Amacron" unicode="&#x100;" horiz-adv-x="749" 
d="M-5 0l315 700h128l316 -700h-136l-271 631h52l-270 -631h-134zM140 162l35 102h378l35 -102h-448zM201 788v75h346v-75h-346z" />
    <glyph glyph-name="amacron" unicode="&#x101;" horiz-adv-x="607" 
d="M411 0v108l-7 23v189q0 55 -33 85.5t-100 30.5q-45 0 -88.5 -14t-73.5 -39l-49 91q43 33 102.5 49.5t123.5 16.5q116 0 179.5 -55.5t63.5 -171.5v-313h-118zM243 -7q-60 0 -105 20.5t-69.5 57t-24.5 82.5q0 45 21.5 81t70.5 57t130 21h155v-83h-146q-64 0 -86 -20.5
t-22 -50.5q0 -34 27 -54t75 -20q46 0 82.5 21t52.5 62l21 -75q-18 -47 -64.5 -73t-117.5 -26zM124 638v75h346v-75h-346z" />
    <glyph glyph-name="Abreve" unicode="&#x102;" horiz-adv-x="749" 
d="M-5 0l315 700h128l316 -700h-136l-271 631h52l-270 -631h-134zM140 162l35 102h378l35 -102h-448zM374 750q-73 0 -121.5 39t-51.5 105h82q2 -35 28 -55t63 -20t63.5 20t27.5 55h82q-3 -66 -51.5 -105t-121.5 -39z" />
    <glyph glyph-name="abreve" unicode="&#x103;" horiz-adv-x="607" 
d="M411 0v108l-7 23v189q0 55 -33 85.5t-100 30.5q-45 0 -88.5 -14t-73.5 -39l-49 91q43 33 102.5 49.5t123.5 16.5q116 0 179.5 -55.5t63.5 -171.5v-313h-118zM243 -7q-60 0 -105 20.5t-69.5 57t-24.5 82.5q0 45 21.5 81t70.5 57t130 21h155v-83h-146q-64 0 -86 -20.5
t-22 -50.5q0 -34 27 -54t75 -20q46 0 82.5 21t52.5 62l21 -75q-18 -47 -64.5 -73t-117.5 -26zM297 600q-73 0 -121.5 39t-51.5 105h82q2 -35 28 -55t63 -20t63.5 20t27.5 55h82q-3 -66 -51.5 -105t-121.5 -39z" />
    <glyph glyph-name="Aogonek" unicode="&#x104;" horiz-adv-x="749" 
d="M-5 0l315 700h128l316 -700h-136l-271 631h52l-270 -631h-134zM140 162l35 102h378l35 -102h-448zM682 -228q-62 0 -96 29.5t-34 77.5q0 29 15 57.5t47.5 54t84.5 46.5l55 -37q-42 -19 -68 -37t-38 -36t-12 -38q0 -23 16.5 -36t42.5 -13q17 0 33 4.5t28 11.5l21 -61
q-19 -10 -44 -16.5t-51 -6.5z" />
    <glyph glyph-name="aogonek" unicode="&#x105;" horiz-adv-x="607" 
d="M411 0v108l-7 23v189q0 55 -33 85.5t-100 30.5q-45 0 -88.5 -14t-73.5 -39l-49 91q43 33 102.5 49.5t123.5 16.5q116 0 179.5 -55.5t63.5 -171.5v-313h-118zM243 -7q-60 0 -105 20.5t-69.5 57t-24.5 82.5q0 45 21.5 81t70.5 57t130 21h155v-83h-146q-64 0 -86 -20.5
t-22 -50.5q0 -34 27 -54t75 -20q46 0 82.5 21t52.5 62l21 -75q-18 -47 -64.5 -73t-117.5 -26zM457 -228q-62 0 -96 29.5t-34 77.5q0 29 15 57.5t47.5 54t84.5 46.5l55 -37q-42 -19 -68 -37t-38 -36t-12 -38q0 -23 16.5 -36t42.5 -13q17 0 33 4.5t28 11.5l21 -61
q-19 -10 -44 -16.5t-51 -6.5z" />
    <glyph glyph-name="Cacute" unicode="&#x106;" horiz-adv-x="727" 
d="M418 -10q-80 0 -148.5 26.5t-119 75t-78.5 114.5t-28 144t28 144t79 114.5t119 75t149 26.5q86 0 157 -29.5t120 -87.5l-84 -79q-38 41 -85 61.5t-102 20.5t-100.5 -18t-79 -51t-52 -78t-18.5 -99t18.5 -99t52 -78t79 -51t100.5 -18t102 20.5t85 62.5l84 -80
q-49 -57 -120 -87t-158 -30zM329 757l135 137h147l-174 -137h-108z" />
    <glyph glyph-name="cacute" unicode="&#x107;" horiz-adv-x="581" 
d="M327 -7q-84 0 -149.5 35.5t-102.5 97.5t-37 141q0 80 37 141.5t102.5 96.5t149.5 35q78 0 137.5 -31.5t90.5 -92.5l-96 -56q-24 38 -58.5 56t-74.5 18q-46 0 -83 -20t-58 -57.5t-21 -89.5t21 -89.5t58 -57.5t83 -20q40 0 74.5 18t58.5 56l96 -56q-31 -60 -90.5 -92.5
t-137.5 -32.5zM223 607l135 137h147l-174 -137h-108z" />
    <glyph glyph-name="Ccircumflex" unicode="&#x108;" horiz-adv-x="727" 
d="M418 -10q-80 0 -148.5 26.5t-119 75t-78.5 114.5t-28 144t28 144t79 114.5t119 75t149 26.5q86 0 157 -29.5t120 -87.5l-84 -79q-38 41 -85 61.5t-102 20.5t-100.5 -18t-79 -51t-52 -78t-18.5 -99t18.5 -99t52 -78t79 -51t100.5 -18t102 20.5t85 62.5l84 -80
q-49 -57 -120 -87t-158 -30zM222 757l134 137h114l134 -137h-103l-136 115h96l-136 -115h-103z" />
    <glyph glyph-name="ccircumflex" unicode="&#x109;" horiz-adv-x="581" 
d="M327 -7q-84 0 -149.5 35.5t-102.5 97.5t-37 141q0 80 37 141.5t102.5 96.5t149.5 35q78 0 137.5 -31.5t90.5 -92.5l-96 -56q-24 38 -58.5 56t-74.5 18q-46 0 -83 -20t-58 -57.5t-21 -89.5t21 -89.5t58 -57.5t83 -20q40 0 74.5 18t58.5 56l96 -56q-31 -60 -90.5 -92.5
t-137.5 -32.5zM116 607l134 137h114l134 -137h-103l-136 115h96l-136 -115h-103z" />
    <glyph glyph-name="Cdotaccent" unicode="&#x10a;" horiz-adv-x="727" 
d="M418 -10q-80 0 -148.5 26.5t-119 75t-78.5 114.5t-28 144t28 144t79 114.5t119 75t149 26.5q86 0 157 -29.5t120 -87.5l-84 -79q-38 41 -85 61.5t-102 20.5t-100.5 -18t-79 -51t-52 -78t-18.5 -99t18.5 -99t52 -78t79 -51t100.5 -18t102 20.5t85 62.5l84 -80
q-49 -57 -120 -87t-158 -30zM413 769q-31 0 -51 20t-20 51t20 51t51 20q30 0 50.5 -20t20.5 -51t-20.5 -51t-50.5 -20z" />
    <glyph glyph-name="cdotaccent" unicode="&#x10b;" horiz-adv-x="581" 
d="M327 -7q-84 0 -149.5 35.5t-102.5 97.5t-37 141q0 80 37 141.5t102.5 96.5t149.5 35q78 0 137.5 -31.5t90.5 -92.5l-96 -56q-24 38 -58.5 56t-74.5 18q-46 0 -83 -20t-58 -57.5t-21 -89.5t21 -89.5t58 -57.5t83 -20q40 0 74.5 18t58.5 56l96 -56q-31 -60 -90.5 -92.5
t-137.5 -32.5zM307 619q-31 0 -51 20t-20 51t20 51t51 20q30 0 50.5 -20t20.5 -51t-20.5 -51t-50.5 -20z" />
    <glyph glyph-name="Ccaron" unicode="&#x10c;" horiz-adv-x="727" 
d="M418 -10q-80 0 -148.5 26.5t-119 75t-78.5 114.5t-28 144t28 144t79 114.5t119 75t149 26.5q86 0 157 -29.5t120 -87.5l-84 -79q-38 41 -85 61.5t-102 20.5t-100.5 -18t-79 -51t-52 -78t-18.5 -99t18.5 -99t52 -78t79 -51t100.5 -18t102 20.5t85 62.5l84 -80
q-49 -57 -120 -87t-158 -30zM356 757l-134 137h103l136 -114h-96l136 114h103l-134 -137h-114z" />
    <glyph glyph-name="ccaron" unicode="&#x10d;" horiz-adv-x="581" 
d="M327 -7q-84 0 -149.5 35.5t-102.5 97.5t-37 141q0 80 37 141.5t102.5 96.5t149.5 35q78 0 137.5 -31.5t90.5 -92.5l-96 -56q-24 38 -58.5 56t-74.5 18q-46 0 -83 -20t-58 -57.5t-21 -89.5t21 -89.5t58 -57.5t83 -20q40 0 74.5 18t58.5 56l96 -56q-31 -60 -90.5 -92.5
t-137.5 -32.5zM250 607l-134 137h103l136 -114h-96l136 114h103l-134 -137h-114z" />
    <glyph glyph-name="Dcaron" unicode="&#x10e;" horiz-adv-x="826" 
d="M94 0v700h306q114 0 200 -44t134 -122t48 -184q0 -105 -48 -183.5t-134 -122.5t-200 -44h-306zM224 110h170q79 0 136.5 30t89 84t31.5 126q0 73 -31.5 126.5t-89 83.5t-136.5 30h-170v-480zM318 756l-134 137h103l136 -114h-96l136 114h103l-134 -137h-114z" />
    <glyph glyph-name="dcaron" unicode="&#x10f;" horiz-adv-x="687" 
d="M308 -7q-77 0 -138.5 34.5t-96.5 95.5t-35 144t35 144t96.5 95t138.5 34q67 0 120 -29.5t84 -89.5t31 -154q0 -93 -30 -153.5t-83 -90.5t-122 -30zM323 100q45 0 80.5 20t57 58t21.5 89q0 52 -21.5 89.5t-57 57.5t-80.5 20t-80.5 -20t-57 -57.5t-21.5 -89.5
q0 -51 21.5 -89t57 -58t80.5 -20zM485 0v126l5 142l-10 142v332h124v-742h-119zM691 582v197h99l-16 -197h-83z" />
    <glyph glyph-name="Dcroat" unicode="&#x110;" horiz-adv-x="836" 
d="M104 0v700h306q114 0 200 -44t134 -122t48 -184q0 -105 -48 -183.5t-134 -122.5t-200 -44h-306zM234 110h170q79 0 136.5 30t89 84t31.5 126q0 73 -31.5 126.5t-89 83.5t-136.5 30h-170v-480zM6 308v96h416v-96h-416z" />
    <glyph glyph-name="dcroat" unicode="&#x111;" horiz-adv-x="687" 
d="M308 -7q-77 0 -138.5 34.5t-96.5 95.5t-35 144t35 144t96.5 95t138.5 34q67 0 120 -29.5t84 -89.5t31 -154q0 -93 -30 -153.5t-83 -90.5t-122 -30zM323 100q45 0 80.5 20t57 58t21.5 89q0 52 -21.5 89.5t-57 57.5t-80.5 20t-80.5 -20t-57 -57.5t-21.5 -89.5
q0 -51 21.5 -89t57 -58t80.5 -20zM485 0v126l5 142l-10 142v332h124v-742h-119zM283 595v82h404v-82h-404z" />
    <glyph glyph-name="Emacron" unicode="&#x112;" horiz-adv-x="670" 
d="M214 409h348v-107h-348v107zM224 109h395v-109h-525v700h511v-109h-381v-482zM178 788v75h346v-75h-346z" />
    <glyph glyph-name="emacron" unicode="&#x113;" horiz-adv-x="622" 
d="M333 -7q-89 0 -155.5 35.5t-103 97.5t-36.5 141q0 80 35.5 141.5t98 96.5t142.5 35q78 0 139 -34t96 -96t35 -146q0 -8 -0.5 -18t-1.5 -19h-445v83h379l-49 -26q1 46 -19 81t-54.5 55t-79.5 20q-46 0 -80.5 -20t-54 -55.5t-19.5 -83.5v-20q0 -48 22 -85t62 -57t92 -20
q45 0 81 14t64 44l67 -77q-36 -42 -90.5 -64.5t-124.5 -22.5zM138 638v75h346v-75h-346z" />
    <glyph glyph-name="Ebreve" unicode="&#x114;" horiz-adv-x="670" 
d="M214 409h348v-107h-348v107zM224 109h395v-109h-525v700h511v-109h-381v-482zM351 750q-73 0 -121.5 39t-51.5 105h82q2 -35 28 -55t63 -20t63.5 20t27.5 55h82q-3 -66 -51.5 -105t-121.5 -39z" />
    <glyph glyph-name="ebreve" unicode="&#x115;" horiz-adv-x="622" 
d="M333 -7q-89 0 -155.5 35.5t-103 97.5t-36.5 141q0 80 35.5 141.5t98 96.5t142.5 35q78 0 139 -34t96 -96t35 -146q0 -8 -0.5 -18t-1.5 -19h-445v83h379l-49 -26q1 46 -19 81t-54.5 55t-79.5 20q-46 0 -80.5 -20t-54 -55.5t-19.5 -83.5v-20q0 -48 22 -85t62 -57t92 -20
q45 0 81 14t64 44l67 -77q-36 -42 -90.5 -64.5t-124.5 -22.5zM311 600q-73 0 -121.5 39t-51.5 105h82q2 -35 28 -55t63 -20t63.5 20t27.5 55h82q-3 -66 -51.5 -105t-121.5 -39z" />
    <glyph glyph-name="Edotaccent" unicode="&#x116;" horiz-adv-x="670" 
d="M214 409h348v-107h-348v107zM224 109h395v-109h-525v700h511v-109h-381v-482zM351 769q-31 0 -51 20t-20 51t20 51t51 20q30 0 50.5 -20t20.5 -51t-20.5 -51t-50.5 -20z" />
    <glyph glyph-name="edotaccent" unicode="&#x117;" horiz-adv-x="622" 
d="M333 -7q-89 0 -155.5 35.5t-103 97.5t-36.5 141q0 80 35.5 141.5t98 96.5t142.5 35q78 0 139 -34t96 -96t35 -146q0 -8 -0.5 -18t-1.5 -19h-445v83h379l-49 -26q1 46 -19 81t-54.5 55t-79.5 20q-46 0 -80.5 -20t-54 -55.5t-19.5 -83.5v-20q0 -48 22 -85t62 -57t92 -20
q45 0 81 14t64 44l67 -77q-36 -42 -90.5 -64.5t-124.5 -22.5zM311 619q-31 0 -51 20t-20 51t20 51t51 20q30 0 50.5 -20t20.5 -51t-20.5 -51t-50.5 -20z" />
    <glyph glyph-name="Eogonek" unicode="&#x118;" horiz-adv-x="670" 
d="M214 409h348v-107h-348v107zM224 109h395v-109h-525v700h511v-109h-381v-482zM547 -228q-62 0 -96 29.5t-34 77.5q0 29 15 57.5t47.5 54t84.5 46.5l55 -37q-42 -19 -68 -37t-38 -36t-12 -38q0 -23 16.5 -36t42.5 -13q17 0 33 4.5t28 11.5l21 -61q-19 -10 -44 -16.5
t-51 -6.5z" />
    <glyph glyph-name="eogonek" unicode="&#x119;" horiz-adv-x="622" 
d="M442 -228q-60 0 -94.5 30.5t-34.5 80.5q0 37 20.5 75.5t62.5 66.5l38 -17q-23 -7 -48.5 -11t-52.5 -4q-89 0 -155.5 35.5t-103 97.5t-36.5 141q0 80 35.5 141.5t98 96.5t142.5 35q78 0 139 -34t96 -96t35 -146q0 -8 -0.5 -18t-1.5 -19h-445v83h379l-49 -26q1 46 -19 81
t-54.5 55t-79.5 20q-46 0 -80.5 -20t-54 -55.5t-19.5 -83.5v-20q0 -48 22 -85t62 -57t92 -20q45 0 81 14t64 44l67 -77q-8 -10 -18 -19t-21 -17q-44 -35 -68 -61.5t-34 -48.5t-10 -41q0 -27 16.5 -40t42.5 -13q16 0 32.5 4.5t28.5 11.5l21 -61q-19 -10 -44 -16.5t-52 -6.5z
" />
    <glyph glyph-name="Ecaron" unicode="&#x11a;" horiz-adv-x="670" 
d="M214 409h348v-107h-348v107zM224 109h395v-109h-525v700h511v-109h-381v-482zM294 757l-134 137h103l136 -114h-96l136 114h103l-134 -137h-114z" />
    <glyph glyph-name="ecaron" unicode="&#x11b;" horiz-adv-x="622" 
d="M333 -7q-89 0 -155.5 35.5t-103 97.5t-36.5 141q0 80 35.5 141.5t98 96.5t142.5 35q78 0 139 -34t96 -96t35 -146q0 -8 -0.5 -18t-1.5 -19h-445v83h379l-49 -26q1 46 -19 81t-54.5 55t-79.5 20q-46 0 -80.5 -20t-54 -55.5t-19.5 -83.5v-20q0 -48 22 -85t62 -57t92 -20
q45 0 81 14t64 44l67 -77q-36 -42 -90.5 -64.5t-124.5 -22.5zM254 607l-134 137h103l136 -114h-96l136 114h103l-134 -137h-114z" />
    <glyph glyph-name="Gcircumflex" unicode="&#x11c;" horiz-adv-x="772" 
d="M421 -10q-82 0 -150.5 26.5t-119.5 75t-79 114.5t-28 144t28 144t79.5 114.5t120.5 75t151 26.5q89 0 160.5 -29t120.5 -85l-82 -80q-41 41 -88.5 60.5t-104.5 19.5q-55 0 -102 -18t-81 -51t-52.5 -78t-18.5 -99q0 -53 18.5 -98t52.5 -78.5t80 -51.5t102 -18
q52 0 100.5 16.5t92.5 55.5l74 -97q-55 -44 -127.5 -66.5t-146.5 -22.5zM572 96v262h123v-279zM223 757l134 137h114l134 -137h-103l-136 115h96l-136 -115h-103z" />
    <glyph glyph-name="gcircumflex" unicode="&#x11d;" horiz-adv-x="694" 
d="M324 -201q-74 0 -144.5 19.5t-115.5 56.5l56 94q35 -29 88.5 -46.5t108.5 -17.5q88 0 129 40.5t41 121.5v95l10 121l-4 121v130h119v-453q0 -145 -74 -213.5t-214 -68.5zM308 24q-76 0 -137.5 32.5t-97 90.5t-35.5 136q0 77 35.5 135t97 90t137.5 32q68 0 122 -27
t86.5 -84t32.5 -146t-32.5 -146.5t-86.5 -85t-122 -27.5zM327 130q47 0 84 19.5t57.5 54t20.5 79.5t-20.5 79.5t-57.5 53t-84 18.5t-84.5 -18.5t-58 -53t-20.5 -79.5t20.5 -79.5t58 -54t84.5 -19.5zM144 607l134 137h114l134 -137h-103l-136 115h96l-136 -115h-103z" />
    <glyph glyph-name="Gbreve" unicode="&#x11e;" horiz-adv-x="772" 
d="M421 -10q-82 0 -150.5 26.5t-119.5 75t-79 114.5t-28 144t28 144t79.5 114.5t120.5 75t151 26.5q89 0 160.5 -29t120.5 -85l-82 -80q-41 41 -88.5 60.5t-104.5 19.5q-55 0 -102 -18t-81 -51t-52.5 -78t-18.5 -99q0 -53 18.5 -98t52.5 -78.5t80 -51.5t102 -18
q52 0 100.5 16.5t92.5 55.5l74 -97q-55 -44 -127.5 -66.5t-146.5 -22.5zM572 96v262h123v-279zM414 750q-73 0 -121.5 39t-51.5 105h82q2 -35 28 -55t63 -20t63.5 20t27.5 55h82q-3 -66 -51.5 -105t-121.5 -39z" />
    <glyph glyph-name="gbreve" unicode="&#x11f;" horiz-adv-x="694" 
d="M324 -201q-74 0 -144.5 19.5t-115.5 56.5l56 94q35 -29 88.5 -46.5t108.5 -17.5q88 0 129 40.5t41 121.5v95l10 121l-4 121v130h119v-453q0 -145 -74 -213.5t-214 -68.5zM308 24q-76 0 -137.5 32.5t-97 90.5t-35.5 136q0 77 35.5 135t97 90t137.5 32q68 0 122 -27
t86.5 -84t32.5 -146t-32.5 -146.5t-86.5 -85t-122 -27.5zM327 130q47 0 84 19.5t57.5 54t20.5 79.5t-20.5 79.5t-57.5 53t-84 18.5t-84.5 -18.5t-58 -53t-20.5 -79.5t20.5 -79.5t58 -54t84.5 -19.5zM335 600q-73 0 -121.5 39t-51.5 105h82q2 -35 28 -55t63 -20t63.5 20
t27.5 55h82q-3 -66 -51.5 -105t-121.5 -39z" />
    <glyph glyph-name="Gdotaccent" unicode="&#x120;" horiz-adv-x="772" 
d="M421 -10q-82 0 -150.5 26.5t-119.5 75t-79 114.5t-28 144t28 144t79.5 114.5t120.5 75t151 26.5q89 0 160.5 -29t120.5 -85l-82 -80q-41 41 -88.5 60.5t-104.5 19.5q-55 0 -102 -18t-81 -51t-52.5 -78t-18.5 -99q0 -53 18.5 -98t52.5 -78.5t80 -51.5t102 -18
q52 0 100.5 16.5t92.5 55.5l74 -97q-55 -44 -127.5 -66.5t-146.5 -22.5zM572 96v262h123v-279zM414 769q-31 0 -51 20t-20 51t20 51t51 20q30 0 50.5 -20t20.5 -51t-20.5 -51t-50.5 -20z" />
    <glyph glyph-name="gdotaccent" unicode="&#x121;" horiz-adv-x="694" 
d="M324 -201q-74 0 -144.5 19.5t-115.5 56.5l56 94q35 -29 88.5 -46.5t108.5 -17.5q88 0 129 40.5t41 121.5v95l10 121l-4 121v130h119v-453q0 -145 -74 -213.5t-214 -68.5zM308 24q-76 0 -137.5 32.5t-97 90.5t-35.5 136q0 77 35.5 135t97 90t137.5 32q68 0 122 -27
t86.5 -84t32.5 -146t-32.5 -146.5t-86.5 -85t-122 -27.5zM327 130q47 0 84 19.5t57.5 54t20.5 79.5t-20.5 79.5t-57.5 53t-84 18.5t-84.5 -18.5t-58 -53t-20.5 -79.5t20.5 -79.5t58 -54t84.5 -19.5zM335 619q-31 0 -51 20t-20 51t20 51t51 20q30 0 50.5 -20t20.5 -51
t-20.5 -51t-50.5 -20z" />
    <glyph glyph-name="uni0122" unicode="&#x122;" horiz-adv-x="772" 
d="M421 -10q-82 0 -150.5 26.5t-119.5 75t-79 114.5t-28 144t28 144t79.5 114.5t120.5 75t151 26.5q89 0 160.5 -29t120.5 -85l-82 -80q-41 41 -88.5 60.5t-104.5 19.5q-55 0 -102 -18t-81 -51t-52.5 -78t-18.5 -99q0 -53 18.5 -98t52.5 -78.5t80 -51.5t102 -18
q52 0 100.5 16.5t92.5 55.5l74 -97q-55 -44 -127.5 -66.5t-146.5 -22.5zM572 96v262h123v-279zM357 -265l36 122l13 -45q-28 0 -44 14t-16 38q0 23 16.5 38t43.5 15q28 0 44 -15.5t16 -37.5q0 -12 -3 -26t-13 -33l-32 -70h-61z" />
    <glyph glyph-name="uni0123" unicode="&#x123;" horiz-adv-x="694" 
d="M324 -201q-74 0 -144.5 19.5t-115.5 56.5l56 94q35 -29 88.5 -46.5t108.5 -17.5q88 0 129 40.5t41 121.5v95l10 121l-4 121v130h119v-453q0 -145 -74 -213.5t-214 -68.5zM308 24q-76 0 -137.5 32.5t-97 90.5t-35.5 136q0 77 35.5 135t97 90t137.5 32q68 0 122 -27
t86.5 -84t32.5 -146t-32.5 -146.5t-86.5 -85t-122 -27.5zM327 130q47 0 84 19.5t57.5 54t20.5 79.5t-20.5 79.5t-57.5 53t-84 18.5t-84.5 -18.5t-58 -53t-20.5 -79.5t20.5 -79.5t58 -54t84.5 -19.5zM335 600q-33 0 -50 15t-17 38q0 11 4 24.5t14 32.5l41 92h69l-45 -142
l-16 45q32 0 49.5 -14t17.5 -38t-17 -38.5t-50 -14.5z" />
    <glyph glyph-name="Hcircumflex" unicode="&#x124;" horiz-adv-x="810" 
d="M586 700h130v-700h-130v700zM224 0h-130v700h130v-700zM596 300h-383v111h383v-111zM214 757l134 137h114l134 -137h-103l-136 115h96l-136 -115h-103z" />
    <glyph glyph-name="hcircumflex" unicode="&#x125;" horiz-adv-x="685" 
d="M385 540q64 0 114.5 -25t79.5 -76.5t29 -132.5v-306h-125v290q0 71 -33.5 106t-93.5 35q-44 0 -78 -18t-52.5 -53.5t-18.5 -89.5v-270h-125v742h125v-352l-27 44q28 51 81.5 78.5t123.5 27.5zM-46 799l134 137h114l134 -137h-103l-136 115h96l-136 -115h-103z" />
    <glyph glyph-name="Hbar" unicode="&#x126;" horiz-adv-x="831" 
d="M596 700h130v-700h-130v700zM234 0h-130v700h130v-700zM606 300h-383v111h383v-111zM5 510v96h819v-96h-819z" />
    <glyph glyph-name="hbar" unicode="&#x127;" horiz-adv-x="685" 
d="M385 540q64 0 114.5 -25t79.5 -76.5t29 -132.5v-306h-125v290q0 71 -33.5 106t-93.5 35q-44 0 -78 -18t-52.5 -53.5t-18.5 -89.5v-270h-125v742h125v-352l-27 44q28 51 81.5 78.5t123.5 27.5zM0 595v82h404v-82h-404z" />
    <glyph glyph-name="Itilde" unicode="&#x128;" horiz-adv-x="319" 
d="M94 0v700h130v-700h-130zM231 757q-24 0 -43.5 9.5t-35 23t-29.5 23.5t-28 10q-21 0 -34 -16t-15 -44h-67q2 62 30.5 98t77.5 36q24 0 44 -10t35.5 -23t29.5 -23t27 -10q21 0 34.5 15t14.5 42h67q-1 -58 -30 -94.5t-78 -36.5z" />
    <glyph glyph-name="itilde" unicode="&#x129;" horiz-adv-x="289" 
d="M82 0v534h125v-534h-125zM208 607q-23 0 -40.5 9.5t-31 23t-24.5 23.5t-23 10q-16 0 -24 -15.5t-8 -44.5h-66q0 65 24 99.5t67 34.5q24 0 41 -10t30.5 -23t24.5 -23t23 -10q16 0 24 15.5t8 41.5h66q0 -63 -24 -97t-67 -34z" />
    <glyph glyph-name="Imacron" unicode="&#x12a;" horiz-adv-x="319" 
d="M94 0v700h130v-700h-130zM18 788v75h282v-75h-282z" />
    <glyph glyph-name="imacron" unicode="&#x12b;" horiz-adv-x="289" 
d="M82 0v534h125v-534h-125zM4 638v75h282v-75h-282z" />
    <glyph glyph-name="Ibreve" unicode="&#x12c;" horiz-adv-x="319" 
d="M94 0v700h130v-700h-130zM159 750q-73 0 -121.5 39t-51.5 105h82q2 -35 28 -55t63 -20t63.5 20t27.5 55h82q-3 -66 -51.5 -105t-121.5 -39z" />
    <glyph glyph-name="ibreve" unicode="&#x12d;" horiz-adv-x="289" 
d="M82 0v534h125v-534h-125zM145 600q-63 0 -105 39t-43 105h77q0 -35 19 -55.5t52 -20.5t52 20.5t19 55.5h77q-1 -66 -43 -105t-105 -39z" />
    <glyph glyph-name="Iogonek" unicode="&#x12e;" horiz-adv-x="319" 
d="M94 0v700h130v-700h-130zM189 -228q-49 0 -79.5 28.5t-30.5 75.5q0 43 24.5 84t77.5 76l43 -36q-38 -33 -50 -60t-12 -51q0 -22 13 -35.5t31 -13.5q8 0 16.5 2.5t16.5 7.5l19 -58q-27 -20 -69 -20z" />
    <glyph glyph-name="iogonek" unicode="&#x12f;" horiz-adv-x="289" 
d="M82 0v534h125v-534h-125zM145 622q-35 0 -57.5 22t-22.5 53q0 32 22.5 53.5t57.5 21.5t57.5 -20.5t22.5 -51.5q0 -33 -22 -55.5t-58 -22.5zM172 -228q-49 0 -79.5 28.5t-30.5 75.5q0 43 24.5 84t77.5 76l43 -36q-38 -33 -50 -60t-12 -51q0 -22 13 -35.5t31 -13.5
q8 0 16.5 2.5t16.5 7.5l19 -58q-27 -20 -69 -20z" />
    <glyph glyph-name="Idotaccent" unicode="&#x130;" horiz-adv-x="319" 
d="M94 0v700h130v-700h-130zM159 769q-31 0 -51 20t-20 51t20 51t51 20q30 0 50.5 -20t20.5 -51t-20.5 -51t-50.5 -20z" />
    <glyph glyph-name="dotlessi" unicode="&#x131;" horiz-adv-x="289" 
d="M82 0v534h125v-534h-125z" />
    <glyph glyph-name="IJ" unicode="&#x132;" horiz-adv-x="722" 
d="M327 -10q-75 0 -139.5 20.5t-112.5 53.5l49 101q45 -30 97.5 -46t105.5 -16q86 0 131.5 49.5t45.5 151.5v396h130v-389q0 -105 -38.5 -176.5t-107 -108t-161.5 -36.5zM88 315v385h130v-385h-130z" />
    <glyph glyph-name="ij" unicode="&#x133;" horiz-adv-x="584" 
d="M82 0v534h125v-534h-125zM145 622q-35 0 -57.5 22t-22.5 53q0 32 22.5 53.5t57.5 21.5t57.5 -20.5t22.5 -51.5q0 -33 -22 -55.5t-58 -22.5zM316 -201q-35 0 -66.5 7.5t-53.5 23.5l36 93q29 -21 73 -21q34 0 53 21.5t19 63.5v547h125v-544q0 -88 -48.5 -139.5
t-137.5 -51.5zM439 622q-35 0 -57.5 22t-22.5 53q0 32 22.5 53.5t57.5 21.5t57.5 -20.5t22.5 -51.5q0 -33 -22 -55.5t-58 -22.5z" />
    <glyph glyph-name="Jcircumflex" unicode="&#x134;" horiz-adv-x="527" 
d="M203 -10q-67 0 -123.5 26t-92.5 75l74 89q29 -40 63.5 -60t75.5 -20q109 0 109 129v362h-249v109h379v-464q0 -124 -60.5 -185t-175.5 -61zM59 757l134 137h114l134 -137h-103l-136 115h96l-136 -115h-103z" />
    <glyph glyph-name="jcircumflex" unicode="&#x135;" horiz-adv-x="295" 
d="M27 -201q-35 0 -66.5 7.5t-53.5 23.5l36 93q29 -21 73 -21q34 0 53 21.5t19 63.5v547h125v-544q0 -88 -48.5 -139.5t-137.5 -51.5zM-16 607l110 137h112l110 -137h-98l-111 115h86l-111 -115h-98z" />
    <glyph glyph-name="uni0136" unicode="&#x136;" horiz-adv-x="729" 
d="M210 165l-7 154l367 381h146l-305 -324l-72 -79zM94 0v700h130v-700h-130zM582 0l-268 319l86 95l334 -414h-152zM328 -265l36 122l13 -45q-28 0 -44 14t-16 38q0 23 16.5 38t43.5 15q28 0 44 -15.5t16 -37.5q0 -12 -3 -26t-13 -33l-32 -70h-61z" />
    <glyph glyph-name="uni0137" unicode="&#x137;" horiz-adv-x="636" 
d="M184 119l3 157l279 258h150l-237 -238l-66 -55zM82 0v742h125v-742h-125zM485 0l-195 241l79 100l268 -341h-152zM266 -265l36 122l13 -45q-28 0 -44 14t-16 38q0 23 16.5 38t43.5 15q28 0 44 -15.5t16 -37.5q0 -12 -3 -26t-13 -33l-32 -70h-61z" />
    <glyph glyph-name="kgreenlandic" unicode="&#x138;" horiz-adv-x="625" 
d="M184 119l3 157l279 258h150l-237 -238l-66 -55zM82 0v534h125v-534h-125zM485 0l-195 241l79 100l268 -341h-152z" />
    <glyph glyph-name="Lacute" unicode="&#x139;" horiz-adv-x="599" 
d="M94 0v700h130v-590h366v-110h-496zM75 757l135 137h147l-174 -137h-108z" />
    <glyph glyph-name="lacute" unicode="&#x13a;" horiz-adv-x="289" 
d="M82 0v742h125v-742h-125zM61 815l135 137h147l-174 -137h-108z" />
    <glyph glyph-name="uni013B" unicode="&#x13b;" horiz-adv-x="599" 
d="M94 0v700h130v-590h366v-110h-496zM305 -265l36 122l13 -45q-28 0 -44 14t-16 38q0 23 16.5 38t43.5 15q28 0 44 -15.5t16 -37.5q0 -12 -3 -26t-13 -33l-32 -70h-61z" />
    <glyph glyph-name="uni013C" unicode="&#x13c;" horiz-adv-x="289" 
d="M82 0v742h125v-742h-125zM96 -265l36 122l13 -45q-28 0 -44 14t-16 38q0 23 16.5 38t43.5 15q28 0 44 -15.5t16 -37.5q0 -12 -3 -26t-13 -33l-32 -70h-61z" />
    <glyph glyph-name="Lcaron" unicode="&#x13d;" horiz-adv-x="599" 
d="M94 0v700h130v-590h366v-110h-496zM434 540v197h99l-16 -197h-83z" />
    <glyph glyph-name="lcaron" unicode="&#x13e;" horiz-adv-x="289" 
d="M82 0v742h125v-742h-125zM291 582v197h99l-16 -197h-83z" />
    <glyph glyph-name="Ldot" unicode="&#x13f;" horiz-adv-x="599" 
d="M94 0v700h130v-590h366v-110h-496zM459 330q-31 0 -52 21t-21 54q0 32 21 53.5t52 21.5t51.5 -21.5t20.5 -53.5q0 -33 -20.5 -54t-51.5 -21z" />
    <glyph glyph-name="ldot" unicode="&#x140;" horiz-adv-x="381" 
d="M82 0v742h125v-742h-125zM335 292q-29 0 -48.5 19.5t-19.5 48.5q0 28 19.5 48t48.5 20q30 0 49.5 -20t19.5 -48q0 -29 -19.5 -48.5t-49.5 -19.5z" />
    <glyph glyph-name="Lslash" unicode="&#x141;" horiz-adv-x="609" 
d="M104 0v700h130v-590h366v-110h-496zM50 235l-53 69l345 261l53 -68z" />
    <glyph glyph-name="lslash" unicode="&#x142;" horiz-adv-x="310" 
d="M92 0v742h125v-742h-125zM34 215l-52 70l294 223l51 -71z" />
    <glyph glyph-name="Nacute" unicode="&#x143;" horiz-adv-x="810" 
d="M94 0v700h107l439 -539h-53v539h129v-700h-107l-439 539h53v-539h-129zM321 757l135 137h147l-174 -137h-108z" />
    <glyph glyph-name="nacute" unicode="&#x144;" horiz-adv-x="685" 
d="M385 540q64 0 114.5 -25t79.5 -76.5t29 -132.5v-306h-125v290q0 71 -33.5 106t-93.5 35q-44 0 -78 -18t-52.5 -53.5t-18.5 -89.5v-270h-125v534h119v-144l-21 44q28 51 81.5 78.5t123.5 27.5zM261 607l135 137h147l-174 -137h-108z" />
    <glyph glyph-name="uni0145" unicode="&#x145;" horiz-adv-x="810" 
d="M94 0v700h107l439 -539h-53v539h129v-700h-107l-439 539h53v-539h-129zM356 -265l36 122l13 -45q-28 0 -44 14t-16 38q0 23 16.5 38t43.5 15q28 0 44 -15.5t16 -37.5q0 -12 -3 -26t-13 -33l-32 -70h-61z" />
    <glyph glyph-name="uni0146" unicode="&#x146;" horiz-adv-x="685" 
d="M385 540q64 0 114.5 -25t79.5 -76.5t29 -132.5v-306h-125v290q0 71 -33.5 106t-93.5 35q-44 0 -78 -18t-52.5 -53.5t-18.5 -89.5v-270h-125v534h119v-144l-21 44q28 51 81.5 78.5t123.5 27.5zM296 -265l36 122l13 -45q-28 0 -44 14t-16 38q0 23 16.5 38t43.5 15
q28 0 44 -15.5t16 -37.5q0 -12 -3 -26t-13 -33l-32 -70h-61z" />
    <glyph glyph-name="Ncaron" unicode="&#x147;" horiz-adv-x="810" 
d="M94 0v700h107l439 -539h-53v539h129v-700h-107l-439 539h53v-539h-129zM348 757l-134 137h103l136 -114h-96l136 114h103l-134 -137h-114z" />
    <glyph glyph-name="ncaron" unicode="&#x148;" horiz-adv-x="685" 
d="M385 540q64 0 114.5 -25t79.5 -76.5t29 -132.5v-306h-125v290q0 71 -33.5 106t-93.5 35q-44 0 -78 -18t-52.5 -53.5t-18.5 -89.5v-270h-125v534h119v-144l-21 44q28 51 81.5 78.5t123.5 27.5zM288 607l-134 137h103l136 -114h-96l136 114h103l-134 -137h-114z" />
    <glyph glyph-name="napostrophe" unicode="&#x149;" horiz-adv-x="752" 
d="M-5 439l58 222l17 -75q-35 0 -58.5 22t-23.5 59t23.5 59.5t57.5 22.5q35 0 58 -23t23 -59q0 -11 -1.5 -22.5t-6 -26t-14.5 -37.5l-52 -142h-81zM451 540q64 0 114.5 -25t79.5 -76.5t29 -132.5v-306h-125v290q0 71 -33.5 106t-93.5 35q-44 0 -78 -18t-52.5 -53.5
t-18.5 -89.5v-270h-125v534h119v-144l-21 44q28 51 81.5 78.5t123.5 27.5z" />
    <glyph glyph-name="Eng" unicode="&#x14a;" horiz-adv-x="810" 
d="M94 0v700h107l439 -539l-31 -161l-439 539h53v-539h-129zM483 -201q-54 0 -101 18.5t-82 53.5l62 93q23 -26 52.5 -40.5t65.5 -14.5q107 0 107 129v662h129v-643q0 -132 -59 -195t-174 -63z" />
    <glyph glyph-name="eng" unicode="&#x14b;" horiz-adv-x="685" 
d="M385 540q64 0 114.5 -25t79.5 -76.5t29 -132.5v-316q0 -88 -48.5 -139.5t-137.5 -51.5q-35 0 -66.5 7.5t-53.5 23.5l37 93q28 -21 72 -21q34 0 53 21.5t19 63.5v303q0 71 -33.5 106t-93.5 35q-44 0 -78 -18t-52.5 -53.5t-18.5 -89.5v-270h-125v534h119v-144l-21 44
q28 51 81.5 78.5t123.5 27.5z" />
    <glyph glyph-name="Omacron" unicode="&#x14c;" horiz-adv-x="842" 
d="M422 -10q-82 0 -151 27t-120 75.5t-79 114t-28 143.5t28 143.5t79 114t120 75.5t150 27q82 0 150.5 -27t119.5 -75.5t79 -114t28 -143.5t-28 -144t-79 -114t-119.5 -75t-149.5 -27zM421 104q53 0 98 18t78 51.5t51.5 78t18.5 98.5t-18.5 98.5t-51.5 78t-78 51.5t-98 18
t-97.5 -18t-78 -51.5t-52 -78t-18.5 -98.5q0 -53 18.5 -98t51.5 -78.5t78 -51.5t98 -18zM248 788v75h346v-75h-346z" />
    <glyph glyph-name="omacron" unicode="&#x14d;" horiz-adv-x="645" 
d="M322 -7q-82 0 -146 35.5t-101 97.5t-37 141q0 80 37 141.5t101 96.5t146 35q83 0 147.5 -35t101 -96t36.5 -142q0 -79 -36.5 -141t-101 -97.5t-147.5 -35.5zM322 100q46 0 82 20t56.5 58t20.5 89q0 52 -20.5 89.5t-56.5 57.5t-81 20q-46 0 -81.5 -20t-56.5 -57.5
t-21 -89.5q0 -51 21 -89t56.5 -58t80.5 -20zM148 638v75h346v-75h-346z" />
    <glyph glyph-name="Obreve" unicode="&#x14e;" horiz-adv-x="842" 
d="M422 -10q-82 0 -151 27t-120 75.5t-79 114t-28 143.5t28 143.5t79 114t120 75.5t150 27q82 0 150.5 -27t119.5 -75.5t79 -114t28 -143.5t-28 -144t-79 -114t-119.5 -75t-149.5 -27zM421 104q53 0 98 18t78 51.5t51.5 78t18.5 98.5t-18.5 98.5t-51.5 78t-78 51.5t-98 18
t-97.5 -18t-78 -51.5t-52 -78t-18.5 -98.5q0 -53 18.5 -98t51.5 -78.5t78 -51.5t98 -18zM421 750q-73 0 -121.5 39t-51.5 105h82q2 -35 28 -55t63 -20t63.5 20t27.5 55h82q-3 -66 -51.5 -105t-121.5 -39z" />
    <glyph glyph-name="obreve" unicode="&#x14f;" horiz-adv-x="645" 
d="M322 -7q-82 0 -146 35.5t-101 97.5t-37 141q0 80 37 141.5t101 96.5t146 35q83 0 147.5 -35t101 -96t36.5 -142q0 -79 -36.5 -141t-101 -97.5t-147.5 -35.5zM322 100q46 0 82 20t56.5 58t20.5 89q0 52 -20.5 89.5t-56.5 57.5t-81 20q-46 0 -81.5 -20t-56.5 -57.5
t-21 -89.5q0 -51 21 -89t56.5 -58t80.5 -20zM321 600q-73 0 -121.5 39t-51.5 105h82q2 -35 28 -55t63 -20t63.5 20t27.5 55h82q-3 -66 -51.5 -105t-121.5 -39z" />
    <glyph glyph-name="Ohungarumlaut" unicode="&#x150;" horiz-adv-x="842" 
d="M422 -10q-82 0 -151 27t-120 75.5t-79 114t-28 143.5t28 143.5t79 114t120 75.5t150 27q82 0 150.5 -27t119.5 -75.5t79 -114t28 -143.5t-28 -144t-79 -114t-119.5 -75t-149.5 -27zM421 104q53 0 98 18t78 51.5t51.5 78t18.5 98.5t-18.5 98.5t-51.5 78t-78 51.5t-98 18
t-97.5 -18t-78 -51.5t-52 -78t-18.5 -98.5q0 -53 18.5 -98t51.5 -78.5t78 -51.5t98 -18zM466 757l80 137h125l-107 -137h-98zM278 757l81 137h125l-108 -137h-98z" />
    <glyph glyph-name="ohungarumlaut" unicode="&#x151;" horiz-adv-x="645" 
d="M322 -7q-82 0 -146 35.5t-101 97.5t-37 141q0 80 37 141.5t101 96.5t146 35q83 0 147.5 -35t101 -96t36.5 -142q0 -79 -36.5 -141t-101 -97.5t-147.5 -35.5zM322 100q46 0 82 20t56.5 58t20.5 89q0 52 -20.5 89.5t-56.5 57.5t-81 20q-46 0 -81.5 -20t-56.5 -57.5
t-21 -89.5q0 -51 21 -89t56.5 -58t80.5 -20zM366 607l80 137h125l-107 -137h-98zM178 607l81 137h125l-108 -137h-98z" />
    <glyph glyph-name="OE" unicode="&#x152;" horiz-adv-x="1131" 
d="M426 0q-114 0 -200 44t-134 122.5t-48 182.5q0 106 48 184.5t134 122.5t200 44h162v-110h-156q-77 0 -135.5 -30t-90 -84t-31.5 -126q0 -73 31.5 -126.5t90 -83.5t135.5 -30h156v-110h-162zM674 409h349v-107h-349v107zM684 109h395v-109h-524v700h510v-109h-381v-482z
" />
    <glyph glyph-name="oe" unicode="&#x153;" horiz-adv-x="1065" 
d="M322 -7q-82 0 -146 35.5t-101 97.5t-37 141q0 80 37 141.5t101 96.5t146 35t143 -35t95 -96.5t34 -141.5q0 -79 -34 -141t-95 -97.5t-143 -35.5zM322 100q46 0 82 20t56.5 58t20.5 89q0 52 -20.5 89.5t-56.5 57.5t-82 20q-45 0 -80.5 -20t-56.5 -57.5t-21 -89.5
q0 -51 21 -89t56.5 -58t80.5 -20zM777 -7q-89 0 -153.5 35.5t-99 97.5t-34.5 141q0 80 34 141.5t94 96.5t139 35t140 -34t96 -96t35 -146q0 -8 -0.5 -18t-1.5 -19h-442v83h369l-43 -26q1 46 -18.5 81t-54 55t-80.5 20q-45 0 -79.5 -20t-54.5 -55.5t-20 -83.5v-20
q0 -48 22 -85t62 -57t93 -20q44 0 80 14t64 44l68 -77q-37 -42 -92 -64.5t-123 -22.5z" />
    <glyph glyph-name="Racute" unicode="&#x154;" horiz-adv-x="731" 
d="M94 0v700h288q93 0 159.5 -30t102.5 -86t36 -133t-36 -132.5t-102.5 -85t-159.5 -29.5h-216l58 59v-263h-130zM552 0l-177 254h139l178 -254h-140zM224 249l-58 62h210q86 0 129.5 37t43.5 103q0 67 -43.5 103t-129.5 36h-210l58 64v-405zM289 757l135 137h147l-174 -137
h-108z" />
    <glyph glyph-name="racute" unicode="&#x155;" horiz-adv-x="420" 
d="M82 0v534h119v-147l-14 43q24 54 75.5 82t128.5 28v-119q-8 2 -15 2.5t-14 0.5q-71 0 -113 -41.5t-42 -123.5v-259h-125zM152 607l135 137h147l-174 -137h-108z" />
    <glyph glyph-name="uni0156" unicode="&#x156;" horiz-adv-x="731" 
d="M94 0v700h288q93 0 159.5 -30t102.5 -86t36 -133t-36 -132.5t-102.5 -85t-159.5 -29.5h-216l58 59v-263h-130zM552 0l-177 254h139l178 -254h-140zM224 249l-58 62h210q86 0 129.5 37t43.5 103q0 67 -43.5 103t-129.5 36h-210l58 64v-405zM324 -265l36 122l13 -45
q-28 0 -44 14t-16 38q0 23 16.5 38t43.5 15q28 0 44 -15.5t16 -37.5q0 -12 -3 -26t-13 -33l-32 -70h-61z" />
    <glyph glyph-name="uni0157" unicode="&#x157;" horiz-adv-x="420" 
d="M82 0v534h119v-147l-14 43q24 54 75.5 82t128.5 28v-119q-8 2 -15 2.5t-14 0.5q-71 0 -113 -41.5t-42 -123.5v-259h-125zM96 -265l36 122l13 -45q-28 0 -44 14t-16 38q0 23 16.5 38t43.5 15q28 0 44 -15.5t16 -37.5q0 -12 -3 -26t-13 -33l-32 -70h-61z" />
    <glyph glyph-name="Rcaron" unicode="&#x158;" horiz-adv-x="731" 
d="M94 0v700h288q93 0 159.5 -30t102.5 -86t36 -133t-36 -132.5t-102.5 -85t-159.5 -29.5h-216l58 59v-263h-130zM552 0l-177 254h139l178 -254h-140zM224 249l-58 62h210q86 0 129.5 37t43.5 103q0 67 -43.5 103t-129.5 36h-210l58 64v-405zM316 757l-134 137h103l136 -114
h-96l136 114h103l-134 -137h-114z" />
    <glyph glyph-name="rcaron" unicode="&#x159;" horiz-adv-x="420" 
d="M82 0v534h119v-147l-14 43q24 54 75.5 82t128.5 28v-119q-8 2 -15 2.5t-14 0.5q-71 0 -113 -41.5t-42 -123.5v-259h-125zM179 607l-134 137h103l136 -114h-96l136 114h103l-134 -137h-114z" />
    <glyph glyph-name="Sacute" unicode="&#x15a;" horiz-adv-x="629" 
d="M311 -10q-82 0 -157 23.5t-119 60.5l45 101q42 -33 104 -55t127 -22q55 0 89 12t50 32.5t16 46.5q0 32 -23 51.5t-59.5 31t-81 21.5t-89 23.5t-81 35t-59.5 57.5t-23 92q0 57 30.5 104.5t93 76t158.5 28.5q63 0 125 -16t108 -46l-41 -101q-47 28 -97 41.5t-96 13.5
q-54 0 -87.5 -13t-49 -34t-15.5 -48q0 -32 22.5 -51.5t59 -30.5t81.5 -21.5t89.5 -23.5t81 -34t59 -57t22.5 -91q0 -56 -30.5 -103.5t-93.5 -76t-159 -28.5zM240 757l135 137h147l-174 -137h-108z" />
    <glyph glyph-name="sacute" unicode="&#x15b;" horiz-adv-x="515" 
d="M247 -7q-67 0 -128.5 17.5t-97.5 42.5l48 95q36 -23 86 -38t100 -15q59 0 85.5 16t26.5 43q0 22 -18 33.5t-47 17.5t-64.5 11t-71 13.5t-64.5 25t-47 44.5t-18 74q0 51 29 88.5t81.5 58t124.5 20.5q54 0 109 -12t91 -34l-48 -95q-38 23 -76.5 31.5t-76.5 8.5
q-57 0 -84.5 -17t-27.5 -43q0 -24 18 -36t47 -19t64.5 -11.5t70.5 -13.5t64.5 -24.5t47.5 -43.5t18 -73q0 -50 -29.5 -87t-83.5 -57.5t-129 -20.5zM170 607l135 137h147l-174 -137h-108z" />
    <glyph glyph-name="Scircumflex" unicode="&#x15c;" horiz-adv-x="629" 
d="M311 -10q-82 0 -157 23.5t-119 60.5l45 101q42 -33 104 -55t127 -22q55 0 89 12t50 32.5t16 46.5q0 32 -23 51.5t-59.5 31t-81 21.5t-89 23.5t-81 35t-59.5 57.5t-23 92q0 57 30.5 104.5t93 76t158.5 28.5q63 0 125 -16t108 -46l-41 -101q-47 28 -97 41.5t-96 13.5
q-54 0 -87.5 -13t-49 -34t-15.5 -48q0 -32 22.5 -51.5t59 -30.5t81.5 -21.5t89.5 -23.5t81 -34t59 -57t22.5 -91q0 -56 -30.5 -103.5t-93.5 -76t-159 -28.5zM133 757l134 137h114l134 -137h-103l-136 115h96l-136 -115h-103z" />
    <glyph glyph-name="scircumflex" unicode="&#x15d;" horiz-adv-x="515" 
d="M247 -7q-67 0 -128.5 17.5t-97.5 42.5l48 95q36 -23 86 -38t100 -15q59 0 85.5 16t26.5 43q0 22 -18 33.5t-47 17.5t-64.5 11t-71 13.5t-64.5 25t-47 44.5t-18 74q0 51 29 88.5t81.5 58t124.5 20.5q54 0 109 -12t91 -34l-48 -95q-38 23 -76.5 31.5t-76.5 8.5
q-57 0 -84.5 -17t-27.5 -43q0 -24 18 -36t47 -19t64.5 -11.5t70.5 -13.5t64.5 -24.5t47.5 -43.5t18 -73q0 -50 -29.5 -87t-83.5 -57.5t-129 -20.5zM63 607l134 137h114l134 -137h-103l-136 115h96l-136 -115h-103z" />
    <glyph glyph-name="Scedilla" unicode="&#x15e;" horiz-adv-x="629" 
d="M311 -10q-82 0 -157 23.5t-119 60.5l45 101q42 -33 104 -55t127 -22q55 0 89 12t50 32.5t16 46.5q0 32 -23 51.5t-59.5 31t-81 21.5t-89 23.5t-81 35t-59.5 57.5t-23 92q0 57 30.5 104.5t93 76t158.5 28.5q63 0 125 -16t108 -46l-41 -101q-47 28 -97 41.5t-96 13.5
q-54 0 -87.5 -13t-49 -34t-15.5 -48q0 -32 22.5 -51.5t59 -30.5t81.5 -21.5t89.5 -23.5t81 -34t59 -57t22.5 -91q0 -56 -30.5 -103.5t-93.5 -76t-159 -28.5zM295 -228q-27 0 -50 5.5t-42 15.5l23 59q16 -8 32.5 -12t35.5 -4q29 0 41 10t12 26q0 15 -12.5 24t-40.5 9h-31
l27 102h68l-14 -56q44 -5 65.5 -28.5t21.5 -55.5q0 -44 -37 -69.5t-99 -25.5z" />
    <glyph glyph-name="scedilla" unicode="&#x15f;" horiz-adv-x="515" 
d="M247 -7q-67 0 -128.5 17.5t-97.5 42.5l48 95q36 -23 86 -38t100 -15q59 0 85.5 16t26.5 43q0 22 -18 33.5t-47 17.5t-64.5 11t-71 13.5t-64.5 25t-47 44.5t-18 74q0 51 29 88.5t81.5 58t124.5 20.5q54 0 109 -12t91 -34l-48 -95q-38 23 -76.5 31.5t-76.5 8.5
q-57 0 -84.5 -17t-27.5 -43q0 -24 18 -36t47 -19t64.5 -11.5t70.5 -13.5t64.5 -24.5t47.5 -43.5t18 -73q0 -50 -29.5 -87t-83.5 -57.5t-129 -20.5zM225 -228q-27 0 -50 5.5t-42 15.5l23 59q16 -8 32.5 -12t35.5 -4q29 0 41 10t12 26q0 15 -12.5 24t-40.5 9h-31l27 102h68
l-14 -56q44 -5 65.5 -28.5t21.5 -55.5q0 -44 -37 -69.5t-99 -25.5z" />
    <glyph glyph-name="Scaron" unicode="&#x160;" horiz-adv-x="629" 
d="M311 -10q-82 0 -157 23.5t-119 60.5l45 101q42 -33 104 -55t127 -22q55 0 89 12t50 32.5t16 46.5q0 32 -23 51.5t-59.5 31t-81 21.5t-89 23.5t-81 35t-59.5 57.5t-23 92q0 57 30.5 104.5t93 76t158.5 28.5q63 0 125 -16t108 -46l-41 -101q-47 28 -97 41.5t-96 13.5
q-54 0 -87.5 -13t-49 -34t-15.5 -48q0 -32 22.5 -51.5t59 -30.5t81.5 -21.5t89.5 -23.5t81 -34t59 -57t22.5 -91q0 -56 -30.5 -103.5t-93.5 -76t-159 -28.5zM267 757l-134 137h103l136 -114h-96l136 114h103l-134 -137h-114z" />
    <glyph glyph-name="scaron" unicode="&#x161;" horiz-adv-x="515" 
d="M247 -7q-67 0 -128.5 17.5t-97.5 42.5l48 95q36 -23 86 -38t100 -15q59 0 85.5 16t26.5 43q0 22 -18 33.5t-47 17.5t-64.5 11t-71 13.5t-64.5 25t-47 44.5t-18 74q0 51 29 88.5t81.5 58t124.5 20.5q54 0 109 -12t91 -34l-48 -95q-38 23 -76.5 31.5t-76.5 8.5
q-57 0 -84.5 -17t-27.5 -43q0 -24 18 -36t47 -19t64.5 -11.5t70.5 -13.5t64.5 -24.5t47.5 -43.5t18 -73q0 -50 -29.5 -87t-83.5 -57.5t-129 -20.5zM197 607l-134 137h103l136 -114h-96l136 114h103l-134 -137h-114z" />
    <glyph glyph-name="uni0162" unicode="&#x162;" horiz-adv-x="602" 
d="M236 0v590h-232v110h594v-110h-232v-590h-130zM272 -228q-27 0 -50 5.5t-42 15.5l23 59q16 -8 32.5 -12t35.5 -4q29 0 41 10t12 26q0 15 -12.5 24t-40.5 9h-31l27 102h68l-14 -56q44 -5 65.5 -28.5t21.5 -55.5q0 -44 -37 -69.5t-99 -25.5z" />
    <glyph glyph-name="uni0163" unicode="&#x163;" horiz-adv-x="424" 
d="M283 -7q-88 0 -136 45.5t-48 134.5v479h125v-476q0 -38 19.5 -59t54.5 -21q42 0 70 22l35 -89q-22 -18 -54 -27t-66 -9zM11 430v100h356v-100h-356zM228 -228q-27 0 -50 5.5t-42 15.5l23 59q16 -8 32.5 -12t35.5 -4q29 0 41 10t12 26q0 15 -12.5 24t-40.5 9h-31l27 102
h68l-14 -56q44 -5 65.5 -28.5t21.5 -55.5q0 -44 -37 -69.5t-99 -25.5z" />
    <glyph glyph-name="Tcaron" unicode="&#x164;" horiz-adv-x="602" 
d="M236 0v590h-232v110h594v-110h-232v-590h-130zM244 757l-134 137h103l136 -114h-96l136 114h103l-134 -137h-114z" />
    <glyph glyph-name="tcaron" unicode="&#x165;" horiz-adv-x="424" 
d="M283 -7q-88 0 -136 45.5t-48 134.5v479h125v-476q0 -38 19.5 -59t54.5 -21q42 0 70 22l35 -89q-22 -18 -54 -27t-66 -9zM11 430v100h356v-100h-356zM299 591v176h94l-13 -176h-81z" />
    <glyph glyph-name="Tbar" unicode="&#x166;" horiz-adv-x="602" 
d="M236 0v590h-232v110h594v-110h-232v-590h-130zM93 285v96h416v-96h-416z" />
    <glyph glyph-name="tbar" unicode="&#x167;" horiz-adv-x="434" 
d="M288 -7q-88 0 -136 45.5t-48 134.5v479h125v-476q0 -38 19.5 -59t54.5 -21q42 0 70 22l35 -89q-22 -18 -54 -27t-66 -9zM16 430v100h356v-100h-356zM29 241v81h331v-81h-331z" />
    <glyph glyph-name="Utilde" unicode="&#x168;" horiz-adv-x="789" 
d="M395 -10q-144 0 -225.5 81t-81.5 234v395h130v-390q0 -108 46.5 -157t131.5 -49t131 49t46 157v390h128v-395q0 -153 -81.5 -234t-224.5 -81zM468 757q-24 0 -43.5 9.5t-35 23t-29.5 23.5t-28 10q-21 0 -34 -16t-15 -44h-67q2 62 30.5 98t77.5 36q24 0 44 -10t35.5 -23
t29.5 -23t27 -10q21 0 34.5 15t14.5 42h67q-1 -58 -30 -94.5t-78 -36.5z" />
    <glyph glyph-name="utilde" unicode="&#x169;" horiz-adv-x="681" 
d="M308 -7q-68 0 -120 25.5t-81 78t-29 132.5v305h125v-288q0 -72 32.5 -107.5t92.5 -35.5q44 0 76.5 18t51 54t18.5 89v270h125v-534h-119v144l21 -44q-27 -52 -79 -79.5t-114 -27.5zM410 607q-24 0 -43.5 9.5t-35 23t-29.5 23.5t-28 10q-21 0 -34 -16t-15 -44h-67
q2 62 30.5 98t77.5 36q24 0 44 -10t35.5 -23t29.5 -23t27 -10q21 0 34.5 15t14.5 42h67q-1 -58 -30 -94.5t-78 -36.5z" />
    <glyph glyph-name="Umacron" unicode="&#x16a;" horiz-adv-x="789" 
d="M395 -10q-144 0 -225.5 81t-81.5 234v395h130v-390q0 -108 46.5 -157t131.5 -49t131 49t46 157v390h128v-395q0 -153 -81.5 -234t-224.5 -81zM223 788v75h346v-75h-346z" />
    <glyph glyph-name="umacron" unicode="&#x16b;" horiz-adv-x="681" 
d="M308 -7q-68 0 -120 25.5t-81 78t-29 132.5v305h125v-288q0 -72 32.5 -107.5t92.5 -35.5q44 0 76.5 18t51 54t18.5 89v270h125v-534h-119v144l21 -44q-27 -52 -79 -79.5t-114 -27.5zM165 638v75h346v-75h-346z" />
    <glyph glyph-name="Ubreve" unicode="&#x16c;" horiz-adv-x="789" 
d="M395 -10q-144 0 -225.5 81t-81.5 234v395h130v-390q0 -108 46.5 -157t131.5 -49t131 49t46 157v390h128v-395q0 -153 -81.5 -234t-224.5 -81zM396 750q-73 0 -121.5 39t-51.5 105h82q2 -35 28 -55t63 -20t63.5 20t27.5 55h82q-3 -66 -51.5 -105t-121.5 -39z" />
    <glyph glyph-name="ubreve" unicode="&#x16d;" horiz-adv-x="681" 
d="M308 -7q-68 0 -120 25.5t-81 78t-29 132.5v305h125v-288q0 -72 32.5 -107.5t92.5 -35.5q44 0 76.5 18t51 54t18.5 89v270h125v-534h-119v144l21 -44q-27 -52 -79 -79.5t-114 -27.5zM338 600q-73 0 -121.5 39t-51.5 105h82q2 -35 28 -55t63 -20t63.5 20t27.5 55h82
q-3 -66 -51.5 -105t-121.5 -39z" />
    <glyph glyph-name="Uring" unicode="&#x16e;" horiz-adv-x="789" 
d="M395 -10q-144 0 -225.5 81t-81.5 234v395h130v-390q0 -108 46.5 -157t131.5 -49t131 49t46 157v390h128v-395q0 -153 -81.5 -234t-224.5 -81zM395 759q-33 0 -59.5 16t-41.5 41.5t-15 56.5q0 32 15.5 58.5t41.5 42t59 15.5q34 0 60.5 -15.5t41.5 -42t15 -58.5
q0 -31 -15 -57t-41.5 -41.5t-60.5 -15.5zM395 810q28 0 46 18t18 45q0 28 -18 46.5t-46 18.5q-26 0 -44.5 -18t-18.5 -47q0 -27 18 -45t45 -18z" />
    <glyph glyph-name="uring" unicode="&#x16f;" horiz-adv-x="681" 
d="M308 -7q-68 0 -120 25.5t-81 78t-29 132.5v305h125v-288q0 -72 32.5 -107.5t92.5 -35.5q44 0 76.5 18t51 54t18.5 89v270h125v-534h-119v144l21 -44q-27 -52 -79 -79.5t-114 -27.5zM337 593q-33 0 -59.5 16t-41.5 41.5t-15 56.5q0 32 15.5 58.5t41.5 42t59 15.5
q34 0 60.5 -15.5t41.5 -42t15 -58.5q0 -31 -15 -57t-41.5 -41.5t-60.5 -15.5zM337 644q28 0 46 18t18 45q0 28 -18 46.5t-46 18.5q-26 0 -44.5 -18t-18.5 -47q0 -27 18 -45t45 -18z" />
    <glyph glyph-name="Uhungarumlaut" unicode="&#x170;" horiz-adv-x="789" 
d="M395 -10q-144 0 -225.5 81t-81.5 234v395h130v-390q0 -108 46.5 -157t131.5 -49t131 49t46 157v390h128v-395q0 -153 -81.5 -234t-224.5 -81zM441 757l80 137h125l-107 -137h-98zM253 757l81 137h125l-108 -137h-98z" />
    <glyph glyph-name="uhungarumlaut" unicode="&#x171;" horiz-adv-x="681" 
d="M308 -7q-68 0 -120 25.5t-81 78t-29 132.5v305h125v-288q0 -72 32.5 -107.5t92.5 -35.5q44 0 76.5 18t51 54t18.5 89v270h125v-534h-119v144l21 -44q-27 -52 -79 -79.5t-114 -27.5zM383 607l80 137h125l-107 -137h-98zM195 607l81 137h125l-108 -137h-98z" />
    <glyph glyph-name="Uogonek" unicode="&#x172;" horiz-adv-x="789" 
d="M573 700h128v-395q0 -123 -50 -195t-134 -102q-57 -21 -87.5 -41.5t-42 -40t-11.5 -37.5q0 -23 16.5 -36t42.5 -13q16 0 32.5 4.5t28.5 11.5l21 -61q-19 -10 -44 -16.5t-52 -6.5q-61 0 -95 29.5t-34 77.5q0 29 14.5 57.5t47 54t85.5 46.5v-45q-11 -1 -22 -1.5t-22 -0.5
q-144 0 -225.5 81t-81.5 234v395h130v-390q0 -108 46.5 -157t131.5 -49t131 49t46 157v390z" />
    <glyph glyph-name="uogonek" unicode="&#x173;" horiz-adv-x="681" 
d="M308 -7q-68 0 -120 25.5t-81 78t-29 132.5v305h125v-288q0 -72 32.5 -107.5t92.5 -35.5q44 0 76.5 18t51 54t18.5 89v270h125v-534h-119v144l21 -44q-27 -52 -79 -79.5t-114 -27.5zM527 -228q-62 0 -96 29.5t-34 77.5q0 29 15 57.5t47.5 54t84.5 46.5l55 -37
q-42 -19 -68 -37t-38 -36t-12 -38q0 -23 16.5 -36t42.5 -13q17 0 33 4.5t28 11.5l21 -61q-19 -10 -44 -16.5t-51 -6.5z" />
    <glyph glyph-name="Wcircumflex" unicode="&#x174;" horiz-adv-x="1144" 
d="M259 0l-232 700h135l207 -633h-67l215 633h120l209 -633h-65l212 633h124l-232 -700h-138l-191 571h36l-194 -571h-139zM382 757l134 137h114l134 -137h-103l-136 115h96l-136 -115h-103z" />
    <glyph glyph-name="wcircumflex" unicode="&#x175;" horiz-adv-x="919" 
d="M200 0l-196 534h118l168 -471h-56l176 471h105l171 -471h-55l173 471h111l-197 -534h-120l-156 417h37l-159 -417h-120zM266 605l134 137h114l134 -137h-103l-136 115h96l-136 -115h-103z" />
    <glyph glyph-name="Ycircumflex" unicode="&#x176;" horiz-adv-x="661" 
d="M266 0v277l29 -80l-304 503h139l244 -405h-78l246 405h128l-304 -503l30 80v-277h-130zM140 757l134 137h114l134 -137h-103l-136 115h96l-136 -115h-103z" />
    <glyph glyph-name="ycircumflex" unicode="&#x177;" horiz-adv-x="578" 
d="M126 -201q-39 0 -78 13t-65 36l50 92q19 -17 43 -27t49 -10q34 0 55 17t39 57l31 70l10 15l202 472h120l-250 -577q-25 -60 -55.5 -95t-68 -49t-82.5 -14zM236 -19l-241 553h130l196 -461zM85 607l134 137h114l134 -137h-103l-136 115h96l-136 -115h-103z" />
    <glyph glyph-name="Ydieresis" unicode="&#x178;" horiz-adv-x="661" 
d="M266 0v277l29 -80l-304 503h139l244 -405h-78l246 405h128l-304 -503l30 80v-277h-130zM428 768q-25 0 -42.5 16.5t-17.5 43.5t17.5 44t42.5 17t42.5 -17t17.5 -44t-17.5 -43.5t-42.5 -16.5zM234 768q-25 0 -42.5 16.5t-17.5 43.5t17.5 44t42.5 17t42.5 -17t17.5 -44
t-17.5 -43.5t-42.5 -16.5z" />
    <glyph glyph-name="Zacute" unicode="&#x179;" horiz-adv-x="663" 
d="M41 0v87l452 552l15 -49h-460v110h577v-87l-452 -552l-16 49h481v-110h-597zM256 757l135 137h147l-174 -137h-108z" />
    <glyph glyph-name="zacute" unicode="&#x17a;" horiz-adv-x="532" 
d="M38 0v79l329 398l23 -43h-346v100h446v-79l-329 -398l-25 43h363v-100h-461zM184 607l135 137h147l-174 -137h-108z" />
    <glyph glyph-name="Zdotaccent" unicode="&#x17b;" horiz-adv-x="663" 
d="M41 0v87l452 552l15 -49h-460v110h577v-87l-452 -552l-16 49h481v-110h-597zM340 769q-31 0 -51 20t-20 51t20 51t51 20q30 0 50.5 -20t20.5 -51t-20.5 -51t-50.5 -20z" />
    <glyph glyph-name="zdotaccent" unicode="&#x17c;" horiz-adv-x="532" 
d="M38 0v79l329 398l23 -43h-346v100h446v-79l-329 -398l-25 43h363v-100h-461zM268 619q-31 0 -51 20t-20 51t20 51t51 20q30 0 50.5 -20t20.5 -51t-20.5 -51t-50.5 -20z" />
    <glyph glyph-name="Zcaron" unicode="&#x17d;" horiz-adv-x="663" 
d="M41 0v87l452 552l15 -49h-460v110h577v-87l-452 -552l-16 49h481v-110h-597zM283 757l-134 137h103l136 -114h-96l136 114h103l-134 -137h-114z" />
    <glyph glyph-name="zcaron" unicode="&#x17e;" horiz-adv-x="532" 
d="M38 0v79l329 398l23 -43h-346v100h446v-79l-329 -398l-25 43h363v-100h-461zM211 607l-134 137h103l136 -114h-96l136 114h103l-134 -137h-114z" />
    <glyph glyph-name="longs" unicode="&#x17f;" horiz-adv-x="319" 
d="M109 0v564q0 84 49.5 134.5t142.5 50.5q32 0 61.5 -7t50.5 -22l-35 -94q-14 11 -31.5 16.5t-36.5 5.5q-37 0 -56.5 -21.5t-19.5 -64.5v-562h-125zM22 430v100h150v-100h-150z" />
    <glyph glyph-name="uni018F" unicode="&#x18f;" horiz-adv-x="817" 
d="M409 -10q-79 0 -146 27t-116 76t-76 116t-27 147v32h613v-102h-525l42 59q0 -56 17 -101.5t48 -77.5t74 -49.5t96 -17.5t96 17t74 49t47 76t16 99v16q0 51 -18.5 95t-51 76.5t-76.5 50.5t-95 18q-39 0 -78 -9t-73.5 -27t-61.5 -46l-78 88q33 33 78.5 57.5t100 37.5
t113.5 13q81 0 149 -26.5t118 -75t77 -114.5t27 -143q0 -79 -27 -144.5t-76.5 -114t-115.5 -75.5t-145 -27z" />
    <glyph glyph-name="florin" unicode="&#x192;" horiz-adv-x="464" 
d="M25 -201q-35 0 -66 8t-52 24l44 92q28 -21 68 -21q34 0 56.5 21.5t27.5 63.5l72 577q10 84 64.5 134.5t143.5 50.5q32 0 63.5 -7.5t50.5 -24.5l-45 -92q-13 10 -29.5 15.5t-35.5 5.5q-38 0 -61.5 -21.5t-29.5 -63.5l-8 -59l-2 -56l-58 -462q-10 -84 -63.5 -134.5
t-139.5 -50.5zM70 417l12 100h355l-12 -100h-355z" />
    <glyph glyph-name="Ohorn" unicode="&#x1a0;" horiz-adv-x="842" 
d="M422 -10q-82 0 -151 27t-120 75.5t-79 114.5t-28 143q0 78 28 144t79.5 114.5t121.5 75t153 26.5q58 0 103 -7t84 -7q42 0 65.5 17.5t23.5 51.5q0 19 -6 34t-14 28l76 28q14 -19 22 -43t8 -51q0 -68 -47.5 -105.5t-132.5 -37.5q-33 0 -68 4t-66 8l159 19q49 -28 86 -73
t58 -102.5t21 -123.5q0 -78 -28 -144t-79 -114t-119.5 -75t-149.5 -27zM421 104q53 0 98 18t78 51.5t51.5 78.5t18.5 98t-18.5 98t-51.5 78.5t-78 51.5t-98 18t-98 -18t-78 -51.5t-51.5 -78t-18.5 -98.5q0 -53 18.5 -98t51.5 -78.5t78 -51.5t98 -18z" />
    <glyph glyph-name="ohorn" unicode="&#x1a1;" horiz-adv-x="645" 
d="M322 -7q-82 0 -146 35.5t-101 97.5t-37 141q0 80 37 141.5t101.5 96.5t147.5 35q26 0 45 -1.5t36.5 -3.5t37.5 -2q37 0 53.5 19t16.5 47q0 18 -6 33.5t-15 28.5l76 28q13 -19 22 -43t9 -51q0 -43 -20 -75t-57 -49t-89 -17q-19 0 -37.5 2t-38.5 5l78 59q78 -30 125 -96.5
t47 -156.5q0 -79 -36.5 -141t-101 -97.5t-147.5 -35.5zM322 100q45 0 81 20t57 58t21 89q0 52 -20.5 89.5t-56.5 57.5t-82 20q-45 0 -80.5 -20t-56.5 -57.5t-21 -89.5q0 -51 21 -89t56.5 -58t80.5 -20z" />
    <glyph glyph-name="Uhorn" unicode="&#x1af;" horiz-adv-x="800" 
d="M395 -10q-144 0 -225.5 81t-81.5 234v395h130v-390q0 -108 46.5 -157t131.5 -49t131 49t46 157v390h128v-395q0 -153 -81.5 -234t-224.5 -81zM636 611v89h21q31 0 46.5 18t15.5 46q0 18 -5.5 34t-14.5 28l77 28q14 -18 22 -42t8 -52q0 -69 -40 -109t-110 -40h-20z" />
    <glyph glyph-name="uhorn" unicode="&#x1b0;" horiz-adv-x="693" 
d="M308 -7q-68 0 -120 25.5t-81 78t-29 132.5v305h125v-288q0 -72 32.5 -107.5t92.5 -35.5q44 0 76.5 18t51 54t18.5 89v270h125v-534h-119v144l21 -44q-27 -52 -79 -79.5t-114 -27.5zM518 445v89h21q31 0 46.5 18t15.5 46q0 18 -5.5 34t-14.5 28l77 28q14 -18 22 -42t8 -52
q0 -69 -40 -109t-110 -40h-20z" />
    <glyph glyph-name="uni01B7" unicode="&#x1b7;" horiz-adv-x="631" 
d="M299 -10q-79 0 -151.5 21.5t-118.5 57.5l46 102q39 -32 97.5 -51t122.5 -19q77 0 119.5 29t42.5 80q0 48 -40 76.5t-125 28.5h-66v87l218 238l12 -47h-399v107h497v-87l-218 -238l-58 38h39q90 0 150 -25.5t90.5 -71.5t30.5 -106q0 -59 -31 -109t-95 -80.5t-163 -30.5z
" />
    <glyph glyph-name="uni01C4" unicode="&#x1c4;" horiz-adv-x="1452" 
d="M94 0v700h306q114 0 200 -44t134 -122t48 -184q0 -105 -48 -183.5t-134 -122.5t-200 -44h-306zM224 110h170q79 0 136.5 30t89 84t31.5 126q0 73 -31.5 126.5t-89 83.5t-136.5 30h-170v-480zM825 0v87l452 552l15 -49h-460v110h577v-87l-452 -552l-16 49h481v-110h-597z
M1067 757l-134 137h103l136 -114h-96l136 114h103l-134 -137h-114z" />
    <glyph glyph-name="uni01C5" unicode="&#x1c5;" horiz-adv-x="1358" 
d="M94 0v700h306q114 0 200 -44t134 -122t48 -184q0 -105 -48 -183.5t-134 -122.5t-200 -44h-306zM224 110h170q79 0 136.5 30t89 84t31.5 126q0 73 -31.5 126.5t-89 83.5t-136.5 30h-170v-480zM864 0v79l329 398l23 -43h-346v100h446v-79l-329 -398l-25 43h363v-100h-461z
M1037 607l-134 137h103l136 -114h-96l136 114h103l-134 -137h-114z" />
    <glyph glyph-name="uni01C6" unicode="&#x1c6;" horiz-adv-x="1221" 
d="M308 -7q-77 0 -138.5 34.5t-96.5 95.5t-35 144t35 144t96.5 95t138.5 34q67 0 120 -29.5t84 -89.5t31 -154q0 -93 -30 -153.5t-83 -90.5t-122 -30zM323 100q45 0 80.5 20t57 58t21.5 89q0 52 -21.5 89.5t-57 57.5t-80.5 20t-80.5 -20t-57 -57.5t-21.5 -89.5
q0 -51 21.5 -89t57 -58t80.5 -20zM485 0v126l5 142l-10 142v332h124v-742h-119zM719 0v79l329 398l23 -43h-346v100h446v-79l-329 -398l-25 43h363v-100h-461zM892 607l-134 137h103l136 -114h-96l136 114h103l-134 -137h-114z" />
    <glyph glyph-name="uni01C7" unicode="&#x1c7;" horiz-adv-x="1126" 
d="M94 0v700h130v-590h366v-110h-496zM802 -10q-67 0 -123.5 26t-92.5 75l74 89q29 -40 63.5 -60t75.5 -20q109 0 109 129v362h-249v109h379v-464q0 -124 -60.5 -185t-175.5 -61z" />
    <glyph glyph-name="uni01C8" unicode="&#x1c8;" horiz-adv-x="894" 
d="M94 0v700h130v-590h366v-110h-496zM626 -201q-35 0 -66.5 7.5t-53.5 23.5l36 93q29 -21 73 -21q34 0 53 21.5t19 63.5v547h125v-544q0 -88 -48.5 -139.5t-137.5 -51.5zM749 622q-35 0 -57.5 22t-22.5 53q0 32 22.5 53.5t57.5 21.5t57.5 -20.5t22.5 -51.5q0 -33 -22 -55.5
t-58 -22.5z" />
    <glyph glyph-name="uni01C9" unicode="&#x1c9;" horiz-adv-x="584" 
d="M82 0v742h125v-742h-125zM316 -201q-35 0 -66.5 7.5t-53.5 23.5l36 93q29 -21 73 -21q34 0 53 21.5t19 63.5v547h125v-544q0 -88 -48.5 -139.5t-137.5 -51.5zM439 622q-35 0 -57.5 22t-22.5 53q0 32 22.5 53.5t57.5 21.5t57.5 -20.5t22.5 -51.5q0 -33 -22 -55.5
t-58 -22.5z" />
    <glyph glyph-name="uni01CA" unicode="&#x1ca;" horiz-adv-x="1337" 
d="M94 0v700h107l439 -539h-53v539h129v-700h-107l-439 539h53v-539h-129zM1013 -10q-67 0 -123.5 26t-92.5 75l74 89q29 -40 63.5 -60t75.5 -20q109 0 109 129v362h-249v109h379v-464q0 -124 -60.5 -185t-175.5 -61z" />
    <glyph glyph-name="uni01CB" unicode="&#x1cb;" horiz-adv-x="1105" 
d="M94 0v700h107l439 -539h-53v539h129v-700h-107l-439 539h53v-539h-129zM837 -201q-35 0 -66.5 7.5t-53.5 23.5l36 93q29 -21 73 -21q34 0 53 21.5t19 63.5v547h125v-544q0 -88 -48.5 -139.5t-137.5 -51.5zM960 622q-35 0 -57.5 22t-22.5 53q0 32 22.5 53.5t57.5 21.5
t57.5 -20.5t22.5 -51.5q0 -33 -22 -55.5t-58 -22.5z" />
    <glyph glyph-name="uni01CC" unicode="&#x1cc;" horiz-adv-x="980" 
d="M385 540q64 0 114.5 -25t79.5 -76.5t29 -132.5v-306h-125v290q0 71 -33.5 106t-93.5 35q-44 0 -78 -18t-52.5 -53.5t-18.5 -89.5v-270h-125v534h119v-144l-21 44q28 51 81.5 78.5t123.5 27.5zM712 -201q-35 0 -66.5 7.5t-53.5 23.5l36 93q29 -21 73 -21q34 0 53 21.5
t19 63.5v547h125v-544q0 -88 -48.5 -139.5t-137.5 -51.5zM835 622q-35 0 -57.5 22t-22.5 53q0 32 22.5 53.5t57.5 21.5t57.5 -20.5t22.5 -51.5q0 -33 -22 -55.5t-58 -22.5z" />
    <glyph glyph-name="uni01CD" unicode="&#x1cd;" horiz-adv-x="749" 
d="M-5 0l315 700h128l316 -700h-136l-271 631h52l-270 -631h-134zM140 162l35 102h378l35 -102h-448zM317 757l-134 137h103l136 -114h-96l136 114h103l-134 -137h-114z" />
    <glyph glyph-name="uni01CE" unicode="&#x1ce;" horiz-adv-x="607" 
d="M411 0v108l-7 23v189q0 55 -33 85.5t-100 30.5q-45 0 -88.5 -14t-73.5 -39l-49 91q43 33 102.5 49.5t123.5 16.5q116 0 179.5 -55.5t63.5 -171.5v-313h-118zM243 -7q-60 0 -105 20.5t-69.5 57t-24.5 82.5q0 45 21.5 81t70.5 57t130 21h155v-83h-146q-64 0 -86 -20.5
t-22 -50.5q0 -34 27 -54t75 -20q46 0 82.5 21t52.5 62l21 -75q-18 -47 -64.5 -73t-117.5 -26zM240 607l-134 137h103l136 -114h-96l136 114h103l-134 -137h-114z" />
    <glyph glyph-name="uni01D3" unicode="&#x1d3;" horiz-adv-x="789" 
d="M395 -10q-144 0 -225.5 81t-81.5 234v395h130v-390q0 -108 46.5 -157t131.5 -49t131 49t46 157v390h128v-395q0 -153 -81.5 -234t-224.5 -81zM339 757l-134 137h103l136 -114h-96l136 114h103l-134 -137h-114z" />
    <glyph glyph-name="uni01D4" unicode="&#x1d4;" horiz-adv-x="681" 
d="M308 -7q-68 0 -120 25.5t-81 78t-29 132.5v305h125v-288q0 -72 32.5 -107.5t92.5 -35.5q44 0 76.5 18t51 54t18.5 89v270h125v-534h-119v144l21 -44q-27 -52 -79 -79.5t-114 -27.5zM281 607l-134 137h103l136 -114h-96l136 114h103l-134 -137h-114z" />
    <glyph glyph-name="uni01E4" unicode="&#x1e4;" horiz-adv-x="809" 
d="M396 195v95h391v-95h-391zM421 -10q-82 0 -150.5 26.5t-119.5 75t-79 114.5t-28 144t28 144t79.5 114.5t120.5 75t151 26.5q89 0 160.5 -29t120.5 -85l-82 -80q-41 41 -88.5 60.5t-104.5 19.5q-55 0 -102 -18t-81 -51t-52.5 -78t-18.5 -99q0 -53 18.5 -98t52.5 -78.5
t80 -51.5t102 -18q52 0 100.5 16.5t92.5 55.5l74 -97q-55 -44 -127.5 -66.5t-146.5 -22.5zM572 96v262h123v-279z" />
    <glyph glyph-name="uni01E5" unicode="&#x1e5;" horiz-adv-x="704" 
d="M323 -201q-74 0 -144 19.5t-115 56.5l56 93q35 -29 88 -47t109 -18q88 0 129 40.5t41 121.5v96l10 122l-4 121v130h119v-453q0 -144 -73.5 -213t-215.5 -69zM279 -50v75l397 1v-76h-397zM307 54q-78 0 -139 30.5t-95.5 86t-34.5 127.5t34.5 126.5t95.5 85t139 30.5
q67 0 121.5 -26t87.5 -79t33 -137t-33 -138.5t-87.5 -80t-121.5 -25.5zM327 153q48 0 84.5 18.5t57 51t20.5 75.5t-20.5 75t-57 50.5t-84.5 18.5t-85 -18.5t-57.5 -50.5t-20.5 -75t20.5 -75.5t57.5 -51t85 -18.5z" />
    <glyph glyph-name="Gcaron" unicode="&#x1e6;" horiz-adv-x="772" 
d="M421 -10q-82 0 -150.5 26.5t-119.5 75t-79 114.5t-28 144t28 144t79.5 114.5t120.5 75t151 26.5q89 0 160.5 -29t120.5 -85l-82 -80q-41 41 -88.5 60.5t-104.5 19.5q-55 0 -102 -18t-81 -51t-52.5 -78t-18.5 -99q0 -53 18.5 -98t52.5 -78.5t80 -51.5t102 -18
q52 0 100.5 16.5t92.5 55.5l74 -97q-55 -44 -127.5 -66.5t-146.5 -22.5zM572 96v262h123v-279zM357 757l-134 137h103l136 -114h-96l136 114h103l-134 -137h-114z" />
    <glyph glyph-name="gcaron" unicode="&#x1e7;" horiz-adv-x="694" 
d="M324 -201q-74 0 -144.5 19.5t-115.5 56.5l56 94q35 -29 88.5 -46.5t108.5 -17.5q88 0 129 40.5t41 121.5v95l10 121l-4 121v130h119v-453q0 -145 -74 -213.5t-214 -68.5zM308 24q-76 0 -137.5 32.5t-97 90.5t-35.5 136q0 77 35.5 135t97 90t137.5 32q68 0 122 -27
t86.5 -84t32.5 -146t-32.5 -146.5t-86.5 -85t-122 -27.5zM327 130q47 0 84 19.5t57.5 54t20.5 79.5t-20.5 79.5t-57.5 53t-84 18.5t-84.5 -18.5t-58 -53t-20.5 -79.5t20.5 -79.5t58 -54t84.5 -19.5zM278 607l-134 137h103l136 -114h-96l136 114h103l-134 -137h-114z" />
    <glyph glyph-name="uni01E8" unicode="&#x1e8;" horiz-adv-x="729" 
d="M210 165l-7 154l367 381h146l-305 -324l-72 -79zM94 0v700h130v-700h-130zM582 0l-268 319l86 95l334 -414h-152zM320 757l-134 137h103l136 -114h-96l136 114h103l-134 -137h-114z" />
    <glyph glyph-name="uni01E9" unicode="&#x1e9;" horiz-adv-x="636" 
d="M184 119l3 157l279 258h150l-237 -238l-66 -55zM82 0v742h125v-742h-125zM485 0l-195 241l79 100l268 -341h-152zM88 815l-134 137h103l136 -114h-96l136 114h103l-134 -137h-114z" />
    <glyph glyph-name="uni01EA" unicode="&#x1ea;" horiz-adv-x="842" 
d="M435 -228q-61 0 -95 29.5t-34 77.5q0 29 14.5 58t47 54.5t85.5 45.5l8 -45q-12 -1 -21.5 -1.5t-18.5 -0.5q-81 0 -149.5 26.5t-120 75t-79.5 114.5t-28 144t28 144t79.5 114.5t120 75t149.5 26.5q82 0 150.5 -26.5t119.5 -75t79 -114.5t28 -144q0 -89 -35 -159
t-95.5 -117t-134.5 -68q-46 -13 -78 -31t-48.5 -40t-16.5 -46q0 -23 16.5 -36t42.5 -13q17 0 33 4.5t28 11.5l21 -61q-19 -10 -44 -16.5t-52 -6.5zM421 104q53 0 98 18t78 51.5t51.5 78.5t18.5 98q0 54 -18.5 98.5t-51.5 78t-78 51.5t-98 18t-98 -18t-78 -51.5t-51.5 -78
t-18.5 -98.5q0 -53 18.5 -98t51.5 -78.5t78 -51.5t98 -18z" />
    <glyph glyph-name="uni01EB" unicode="&#x1eb;" horiz-adv-x="645" 
d="M352 -228q-61 0 -95 29.5t-34 75.5q0 30 14 59t46 55t83 45l9 -39q-16 -1 -28.5 -2.5t-24.5 -1.5q-82 0 -146 35.5t-101 97.5t-37 141q0 80 37 141.5t101 96.5t146 35q83 0 147.5 -35t101 -96.5t36.5 -141.5q0 -88 -45.5 -154t-121.5 -99q-53 -22 -82 -43.5t-40 -41.5
t-11 -39q0 -24 16.5 -37t42.5 -13q16 0 32.5 4.5t28.5 11.5l20 -61q-18 -10 -43 -16.5t-52 -6.5zM322 100q46 0 82 20t56.5 58t20.5 89q0 52 -20.5 89.5t-56.5 57.5t-82 20q-45 0 -80.5 -20t-56.5 -57.5t-21 -89.5q0 -51 21 -89t56.5 -58t80.5 -20z" />
    <glyph glyph-name="uni01EE" unicode="&#x1ee;" horiz-adv-x="631" 
d="M299 -10q-79 0 -151.5 21.5t-118.5 57.5l46 102q39 -32 97.5 -51t122.5 -19q77 0 119.5 29t42.5 80q0 48 -40 76.5t-125 28.5h-66v87l218 238l12 -47h-399v107h497v-87l-218 -238l-58 38h39q90 0 150 -25.5t90.5 -71.5t30.5 -106q0 -59 -31 -109t-95 -80.5t-163 -30.5z
M250 757l-134 137h103l136 -114h-96l136 114h103l-134 -137h-114z" />
    <glyph glyph-name="uni01EF" unicode="&#x1ef;" horiz-adv-x="541" 
d="M238 -201q-76 0 -144.5 22t-112.5 60l46 103q37 -33 91.5 -53t114.5 -20q72 0 111 30t39 84q0 51 -36.5 81.5t-115.5 30.5h-65v87l204 249l12 -47h-374v108h472v-88l-204 -249l-59 39h39q128 0 192 -58.5t64 -152.5q0 -61 -30 -112.5t-90.5 -82.5t-153.5 -31zM177 607
l-134 137h103l136 -114h-96l136 114h103l-134 -137h-114z" />
    <glyph glyph-name="Aringacute" unicode="&#x1fa;" horiz-adv-x="749" 
d="M-5 0l315 700h128l316 -700h-136l-271 631h52l-270 -631h-134zM140 162l35 102h378l35 -102h-448zM373 759q-33 0 -59.5 16t-41.5 41.5t-15 56.5q0 32 15.5 58.5t41.5 42t59 15.5q34 0 60.5 -15.5t41.5 -42t15 -58.5q0 -31 -15 -57t-41.5 -41.5t-60.5 -15.5zM373 810
q28 0 46 18t18 45q0 28 -18 46.5t-46 18.5q-26 0 -44.5 -18t-18.5 -47q0 -27 18 -45t45 -18zM461 927l-63 21l113 116l64 -50z" />
    <glyph glyph-name="aringacute" unicode="&#x1fb;" horiz-adv-x="607" 
d="M411 0v108l-7 23v189q0 55 -33 85.5t-100 30.5q-45 0 -88.5 -14t-73.5 -39l-49 91q43 33 102.5 49.5t123.5 16.5q116 0 179.5 -55.5t63.5 -171.5v-313h-118zM243 -7q-60 0 -105 20.5t-69.5 57t-24.5 82.5q0 45 21.5 81t70.5 57t130 21h155v-83h-146q-64 0 -86 -20.5
t-22 -50.5q0 -34 27 -54t75 -20q46 0 82.5 21t52.5 62l21 -75q-18 -47 -64.5 -73t-117.5 -26zM296 593q-33 0 -59.5 16t-41.5 41.5t-15 56.5q0 32 15.5 58.5t41.5 42t59 15.5q34 0 60.5 -15.5t41.5 -42t15 -58.5q0 -31 -15 -57t-41.5 -41.5t-60.5 -15.5zM296 644q28 0 46 18
t18 45q0 28 -18 46.5t-46 18.5q-26 0 -44.5 -18t-18.5 -47q0 -27 18 -45t45 -18zM384 761l-63 21l113 116l64 -50z" />
    <glyph glyph-name="AEacute" unicode="&#x1fc;" horiz-adv-x="1063" 
d="M-5 0l406 700h130v-109h-113l79 56l-368 -647h-134zM187 162l4 102h340v-102h-344zM607 409h348v-107h-349zM617 109h395v-109h-525v700h511v-109h-381v-482zM467 757l135 137h147l-174 -137h-108z" />
    <glyph glyph-name="aeacute" unicode="&#x1fd;" horiz-adv-x="993" 
d="M260 -7q-102 0 -159 46t-57 119q0 42 21.5 76.5t70.5 55.5t130 21h154v-82h-145q-63 0 -85.5 -20.5t-22.5 -48.5q0 -36 27.5 -56t76.5 -20q63 0 98 32.5t35 84.5v119q0 55 -33 85.5t-99 30.5q-46 0 -89.5 -14t-73.5 -39l-49 91q43 33 102.5 49.5t122.5 16.5q91 0 147 -34
t76 -100l-59 4q33 61 94.5 95.5t139.5 34.5q58 0 107.5 -19.5t86.5 -55.5t57.5 -86t20.5 -110q0 -12 -0.5 -22t-2.5 -18h-444v82h372l-46 -27q1 52 -21 86t-57 52t-74 18q-38 0 -73.5 -18t-58 -53t-22.5 -88v-20q0 -48 22 -85t61.5 -57t92.5 -20q45 0 80 14t65 44l68 -77
q-37 -43 -92.5 -65t-123.5 -22q-62 0 -116.5 18.5t-95.5 57.5t-65 101l75 -1q-14 -68 -51.5 -106.5t-87 -54t-100.5 -15.5zM383 607l135 137h147l-174 -137h-108z" />
    <glyph glyph-name="Oslashacute" unicode="&#x1fe;" horiz-adv-x="842" 
d="M422 -10q-82 0 -151 27t-120 75.5t-79 114t-28 143.5t28 143.5t79 114t120 75.5t150 27q82 0 150.5 -27t119.5 -75.5t79 -114t28 -143.5t-28 -144t-79 -114t-119.5 -75t-149.5 -27zM421 104q53 0 98 18t78 51.5t51.5 78t18.5 98.5t-18.5 98.5t-51.5 78t-78 51.5t-98 18
t-97.5 -18t-78 -51.5t-52 -78t-18.5 -98.5q0 -53 18.5 -98t51.5 -78.5t78 -51.5t98 -18zM75 -70l600 840h93l-600 -840h-93zM337 757l135 137h147l-174 -137h-108z" />
    <glyph glyph-name="oslashacute" unicode="&#x1ff;" horiz-adv-x="645" 
d="M322 -7q-82 0 -146 35.5t-101 97.5t-37 141q0 80 37 141.5t101 96.5t146 35q83 0 147.5 -35t101 -96t36.5 -142q0 -79 -36.5 -141t-101 -97.5t-147.5 -35.5zM322 100q46 0 82 20t56.5 58t20.5 89q0 52 -20.5 89.5t-56.5 57.5t-81 20q-46 0 -81.5 -20t-56.5 -57.5
t-21 -89.5q0 -51 21 -89t56.5 -58t80.5 -20zM66 -71l440 672h70l-440 -672h-70zM235 607l135 137h147l-174 -137h-108z" />
    <glyph glyph-name="uni0200" unicode="&#x200;" horiz-adv-x="749" 
d="M-5 0l315 700h128l316 -700h-136l-271 631h52l-270 -631h-134zM140 162l35 102h378l35 -102h-448zM419 757l-108 137h125l81 -137h-98zM231 757l-107 137h125l80 -137h-98z" />
    <glyph glyph-name="uni0201" unicode="&#x201;" horiz-adv-x="607" 
d="M411 0v108l-7 23v189q0 55 -33 85.5t-100 30.5q-45 0 -88.5 -14t-73.5 -39l-49 91q43 33 102.5 49.5t123.5 16.5q116 0 179.5 -55.5t63.5 -171.5v-313h-118zM243 -7q-60 0 -105 20.5t-69.5 57t-24.5 82.5q0 45 21.5 81t70.5 57t130 21h155v-83h-146q-64 0 -86 -20.5
t-22 -50.5q0 -34 27 -54t75 -20q46 0 82.5 21t52.5 62l21 -75q-18 -47 -64.5 -73t-117.5 -26zM342 607l-108 137h125l81 -137h-98zM154 607l-107 137h125l80 -137h-98z" />
    <glyph glyph-name="uni0202" unicode="&#x202;" horiz-adv-x="749" 
d="M-5 0l315 700h128l316 -700h-136l-271 631h52l-270 -631h-134zM140 162l35 102h378l35 -102h-448zM201 757q3 67 51.5 105.5t121.5 38.5t121.5 -38.5t51.5 -105.5h-82q-1 35 -27.5 55.5t-63.5 20.5t-63 -20.5t-28 -55.5h-82z" />
    <glyph glyph-name="uni0203" unicode="&#x203;" horiz-adv-x="607" 
d="M411 0v108l-7 23v189q0 55 -33 85.5t-100 30.5q-45 0 -88.5 -14t-73.5 -39l-49 91q43 33 102.5 49.5t123.5 16.5q116 0 179.5 -55.5t63.5 -171.5v-313h-118zM243 -7q-60 0 -105 20.5t-69.5 57t-24.5 82.5q0 45 21.5 81t70.5 57t130 21h155v-83h-146q-64 0 -86 -20.5
t-22 -50.5q0 -34 27 -54t75 -20q46 0 82.5 21t52.5 62l21 -75q-18 -47 -64.5 -73t-117.5 -26zM124 607q3 67 51.5 105.5t121.5 38.5t121.5 -38.5t51.5 -105.5h-82q-1 35 -27.5 55.5t-63.5 20.5t-63 -20.5t-28 -55.5h-82z" />
    <glyph glyph-name="uni0204" unicode="&#x204;" horiz-adv-x="670" 
d="M214 409h348v-107h-348v107zM224 109h395v-109h-525v700h511v-109h-381v-482zM396 757l-108 137h125l81 -137h-98zM208 757l-107 137h125l80 -137h-98z" />
    <glyph glyph-name="uni0205" unicode="&#x205;" horiz-adv-x="622" 
d="M333 -7q-89 0 -155.5 35.5t-103 97.5t-36.5 141q0 80 35.5 141.5t98 96.5t142.5 35q78 0 139 -34t96 -96t35 -146q0 -8 -0.5 -18t-1.5 -19h-445v83h379l-49 -26q1 46 -19 81t-54.5 55t-79.5 20q-46 0 -80.5 -20t-54 -55.5t-19.5 -83.5v-20q0 -48 22 -85t62 -57t92 -20
q45 0 81 14t64 44l67 -77q-36 -42 -90.5 -64.5t-124.5 -22.5zM356 607l-108 137h125l81 -137h-98zM168 607l-107 137h125l80 -137h-98z" />
    <glyph glyph-name="uni0206" unicode="&#x206;" horiz-adv-x="670" 
d="M214 409h348v-107h-348v107zM224 109h395v-109h-525v700h511v-109h-381v-482zM178 757q3 67 51.5 105.5t121.5 38.5t121.5 -38.5t51.5 -105.5h-82q-1 35 -27.5 55.5t-63.5 20.5t-63 -20.5t-28 -55.5h-82z" />
    <glyph glyph-name="uni0207" unicode="&#x207;" horiz-adv-x="622" 
d="M333 -7q-89 0 -155.5 35.5t-103 97.5t-36.5 141q0 80 35.5 141.5t98 96.5t142.5 35q78 0 139 -34t96 -96t35 -146q0 -8 -0.5 -18t-1.5 -19h-445v83h379l-49 -26q1 46 -19 81t-54.5 55t-79.5 20q-46 0 -80.5 -20t-54 -55.5t-19.5 -83.5v-20q0 -48 22 -85t62 -57t92 -20
q45 0 81 14t64 44l67 -77q-36 -42 -90.5 -64.5t-124.5 -22.5zM138 607q3 67 51.5 105.5t121.5 38.5t121.5 -38.5t51.5 -105.5h-82q-1 35 -27.5 55.5t-63.5 20.5t-63 -20.5t-28 -55.5h-82z" />
    <glyph glyph-name="uni0208" unicode="&#x208;" horiz-adv-x="319" 
d="M94 0v700h130v-700h-130zM204 757l-108 137h125l81 -137h-98zM16 757l-107 137h125l80 -137h-98z" />
    <glyph glyph-name="uni0209" unicode="&#x209;" horiz-adv-x="289" 
d="M82 0v534h125v-534h-125zM190 607l-108 137h125l81 -137h-98zM2 607l-107 137h125l80 -137h-98z" />
    <glyph glyph-name="uni020A" unicode="&#x20a;" horiz-adv-x="319" 
d="M94 0v700h130v-700h-130zM-14 757q3 67 51.5 105.5t121.5 38.5t121.5 -38.5t51.5 -105.5h-82q-1 35 -27.5 55.5t-63.5 20.5t-63 -20.5t-28 -55.5h-82z" />
    <glyph glyph-name="uni020B" unicode="&#x20b;" horiz-adv-x="289" 
d="M82 0v534h125v-534h-125zM-3 607q1 67 43 105.5t105 38.5t105 -38.5t43 -105.5h-77q0 35 -19 55.5t-52 20.5t-52 -20.5t-19 -55.5h-77z" />
    <glyph glyph-name="uni020C" unicode="&#x20c;" horiz-adv-x="842" 
d="M422 -10q-82 0 -151 27t-120 75.5t-79 114t-28 143.5t28 143.5t79 114t120 75.5t150 27q82 0 150.5 -27t119.5 -75.5t79 -114t28 -143.5t-28 -144t-79 -114t-119.5 -75t-149.5 -27zM421 104q53 0 98 18t78 51.5t51.5 78t18.5 98.5t-18.5 98.5t-51.5 78t-78 51.5t-98 18
t-97.5 -18t-78 -51.5t-52 -78t-18.5 -98.5q0 -53 18.5 -98t51.5 -78.5t78 -51.5t98 -18zM466 757l-108 137h125l81 -137h-98zM278 757l-107 137h125l80 -137h-98z" />
    <glyph glyph-name="uni020D" unicode="&#x20d;" horiz-adv-x="645" 
d="M322 -7q-82 0 -146 35.5t-101 97.5t-37 141q0 80 37 141.5t101 96.5t146 35q83 0 147.5 -35t101 -96t36.5 -142q0 -79 -36.5 -141t-101 -97.5t-147.5 -35.5zM322 100q46 0 82 20t56.5 58t20.5 89q0 52 -20.5 89.5t-56.5 57.5t-81 20q-46 0 -81.5 -20t-56.5 -57.5
t-21 -89.5q0 -51 21 -89t56.5 -58t80.5 -20zM366 607l-108 137h125l81 -137h-98zM178 607l-107 137h125l80 -137h-98z" />
    <glyph glyph-name="uni020E" unicode="&#x20e;" horiz-adv-x="842" 
d="M422 -10q-82 0 -151 27t-120 75.5t-79 114t-28 143.5t28 143.5t79 114t120 75.5t150 27q82 0 150.5 -27t119.5 -75.5t79 -114t28 -143.5t-28 -144t-79 -114t-119.5 -75t-149.5 -27zM421 104q53 0 98 18t78 51.5t51.5 78t18.5 98.5t-18.5 98.5t-51.5 78t-78 51.5t-98 18
t-97.5 -18t-78 -51.5t-52 -78t-18.5 -98.5q0 -53 18.5 -98t51.5 -78.5t78 -51.5t98 -18zM248 757q3 67 51.5 105.5t121.5 38.5t121.5 -38.5t51.5 -105.5h-82q-1 35 -27.5 55.5t-63.5 20.5t-63 -20.5t-28 -55.5h-82z" />
    <glyph glyph-name="uni020F" unicode="&#x20f;" horiz-adv-x="645" 
d="M322 -7q-82 0 -146 35.5t-101 97.5t-37 141q0 80 37 141.5t101 96.5t146 35q83 0 147.5 -35t101 -96t36.5 -142q0 -79 -36.5 -141t-101 -97.5t-147.5 -35.5zM322 100q46 0 82 20t56.5 58t20.5 89q0 52 -20.5 89.5t-56.5 57.5t-81 20q-46 0 -81.5 -20t-56.5 -57.5
t-21 -89.5q0 -51 21 -89t56.5 -58t80.5 -20zM148 607q3 67 51.5 105.5t121.5 38.5t121.5 -38.5t51.5 -105.5h-82q-1 35 -27.5 55.5t-63.5 20.5t-63 -20.5t-28 -55.5h-82z" />
    <glyph glyph-name="uni0210" unicode="&#x210;" horiz-adv-x="731" 
d="M94 0v700h288q93 0 159.5 -30t102.5 -86t36 -133t-36 -132.5t-102.5 -85t-159.5 -29.5h-216l58 59v-263h-130zM552 0l-177 254h139l178 -254h-140zM224 249l-58 62h210q86 0 129.5 37t43.5 103q0 67 -43.5 103t-129.5 36h-210l58 64v-405zM418 757l-108 137h125l81 -137
h-98zM230 757l-107 137h125l80 -137h-98z" />
    <glyph glyph-name="uni0211" unicode="&#x211;" horiz-adv-x="420" 
d="M82 0v534h119v-147l-14 43q24 54 75.5 82t128.5 28v-119q-8 2 -15 2.5t-14 0.5q-71 0 -113 -41.5t-42 -123.5v-259h-125zM281 607l-108 137h125l81 -137h-98zM93 607l-107 137h125l80 -137h-98z" />
    <glyph glyph-name="uni0212" unicode="&#x212;" horiz-adv-x="731" 
d="M94 0v700h288q93 0 159.5 -30t102.5 -86t36 -133t-36 -132.5t-102.5 -85t-159.5 -29.5h-216l58 59v-263h-130zM552 0l-177 254h139l178 -254h-140zM224 249l-58 62h210q86 0 129.5 37t43.5 103q0 67 -43.5 103t-129.5 36h-210l58 64v-405zM200 757q3 67 51.5 105.5
t121.5 38.5t121.5 -38.5t51.5 -105.5h-82q-1 35 -27.5 55.5t-63.5 20.5t-63 -20.5t-28 -55.5h-82z" />
    <glyph glyph-name="uni0213" unicode="&#x213;" horiz-adv-x="420" 
d="M82 0v534h119v-147l-14 43q24 54 75.5 82t128.5 28v-119q-8 2 -15 2.5t-14 0.5q-71 0 -113 -41.5t-42 -123.5v-259h-125zM63 607q3 67 51.5 105.5t121.5 38.5t121.5 -38.5t51.5 -105.5h-82q-1 35 -27.5 55.5t-63.5 20.5t-63 -20.5t-28 -55.5h-82z" />
    <glyph glyph-name="uni0214" unicode="&#x214;" horiz-adv-x="789" 
d="M395 -10q-144 0 -225.5 81t-81.5 234v395h130v-390q0 -108 46.5 -157t131.5 -49t131 49t46 157v390h128v-395q0 -153 -81.5 -234t-224.5 -81zM441 757l-108 137h125l81 -137h-98zM253 757l-107 137h125l80 -137h-98z" />
    <glyph glyph-name="uni0215" unicode="&#x215;" horiz-adv-x="681" 
d="M308 -7q-68 0 -120 25.5t-81 78t-29 132.5v305h125v-288q0 -72 32.5 -107.5t92.5 -35.5q44 0 76.5 18t51 54t18.5 89v270h125v-534h-119v144l21 -44q-27 -52 -79 -79.5t-114 -27.5zM383 607l-108 137h125l81 -137h-98zM195 607l-107 137h125l80 -137h-98z" />
    <glyph glyph-name="uni0216" unicode="&#x216;" horiz-adv-x="789" 
d="M395 -10q-144 0 -225.5 81t-81.5 234v395h130v-390q0 -108 46.5 -157t131.5 -49t131 49t46 157v390h128v-395q0 -153 -81.5 -234t-224.5 -81zM223 757q3 67 51.5 105.5t121.5 38.5t121.5 -38.5t51.5 -105.5h-82q-1 35 -27.5 55.5t-63.5 20.5t-63 -20.5t-28 -55.5h-82z
" />
    <glyph glyph-name="uni0217" unicode="&#x217;" horiz-adv-x="681" 
d="M308 -7q-68 0 -120 25.5t-81 78t-29 132.5v305h125v-288q0 -72 32.5 -107.5t92.5 -35.5q44 0 76.5 18t51 54t18.5 89v270h125v-534h-119v144l21 -44q-27 -52 -79 -79.5t-114 -27.5zM165 607q3 67 51.5 105.5t121.5 38.5t121.5 -38.5t51.5 -105.5h-82q-1 35 -27.5 55.5
t-63.5 20.5t-63 -20.5t-28 -55.5h-82z" />
    <glyph glyph-name="uni0218" unicode="&#x218;" horiz-adv-x="629" 
d="M311 -10q-82 0 -157 23.5t-119 60.5l45 101q42 -33 104 -55t127 -22q55 0 89 12t50 32.5t16 46.5q0 32 -23 51.5t-59.5 31t-81 21.5t-89 23.5t-81 35t-59.5 57.5t-23 92q0 57 30.5 104.5t93 76t158.5 28.5q63 0 125 -16t108 -46l-41 -101q-47 28 -97 41.5t-96 13.5
q-54 0 -87.5 -13t-49 -34t-15.5 -48q0 -32 22.5 -51.5t59 -30.5t81.5 -21.5t89.5 -23.5t81 -34t59 -57t22.5 -91q0 -56 -30.5 -103.5t-93.5 -76t-159 -28.5zM275 -265l36 122l13 -45q-28 0 -44 14t-16 38q0 23 16.5 38t43.5 15q28 0 44 -15.5t16 -37.5q0 -12 -3 -26t-13 -33
l-32 -70h-61z" />
    <glyph glyph-name="uni0219" unicode="&#x219;" horiz-adv-x="515" 
d="M247 -7q-67 0 -128.5 17.5t-97.5 42.5l48 95q36 -23 86 -38t100 -15q59 0 85.5 16t26.5 43q0 22 -18 33.5t-47 17.5t-64.5 11t-71 13.5t-64.5 25t-47 44.5t-18 74q0 51 29 88.5t81.5 58t124.5 20.5q54 0 109 -12t91 -34l-48 -95q-38 23 -76.5 31.5t-76.5 8.5
q-57 0 -84.5 -17t-27.5 -43q0 -24 18 -36t47 -19t64.5 -11.5t70.5 -13.5t64.5 -24.5t47.5 -43.5t18 -73q0 -50 -29.5 -87t-83.5 -57.5t-129 -20.5zM205 -265l36 122l13 -45q-28 0 -44 14t-16 38q0 23 16.5 38t43.5 15q28 0 44 -15.5t16 -37.5q0 -12 -3 -26t-13 -33l-32 -70
h-61z" />
    <glyph glyph-name="uni021A" unicode="&#x21a;" horiz-adv-x="602" 
d="M236 0v590h-232v110h594v-110h-232v-590h-130zM252 -265l36 122l13 -45q-28 0 -44 14t-16 38q0 23 16.5 38t43.5 15q28 0 44 -15.5t16 -37.5q0 -12 -3 -26t-13 -33l-32 -70h-61z" />
    <glyph glyph-name="uni021B" unicode="&#x21b;" horiz-adv-x="424" 
d="M283 -7q-88 0 -136 45.5t-48 134.5v479h125v-476q0 -38 19.5 -59t54.5 -21q42 0 70 22l35 -89q-22 -18 -54 -27t-66 -9zM11 430v100h356v-100h-356zM208 -265l36 122l13 -45q-28 0 -44 14t-16 38q0 23 16.5 38t43.5 15q28 0 44 -15.5t16 -37.5q0 -12 -3 -26t-13 -33
l-32 -70h-61z" />
    <glyph glyph-name="uni021E" unicode="&#x21e;" horiz-adv-x="810" 
d="M586 700h130v-700h-130v700zM224 0h-130v700h130v-700zM596 300h-383v111h383v-111zM348 757l-134 137h103l136 -114h-96l136 114h103l-134 -137h-114z" />
    <glyph glyph-name="uni021F" unicode="&#x21f;" horiz-adv-x="685" 
d="M385 540q64 0 114.5 -25t79.5 -76.5t29 -132.5v-306h-125v290q0 71 -33.5 106t-93.5 35q-44 0 -78 -18t-52.5 -53.5t-18.5 -89.5v-270h-125v742h125v-352l-27 44q28 51 81.5 78.5t123.5 27.5zM88 815l-134 137h103l136 -114h-96l136 114h103l-134 -137h-114z" />
    <glyph glyph-name="uni022A" unicode="&#x22a;" horiz-adv-x="842" 
d="M422 -10q-82 0 -151 27t-120 75.5t-79 114t-28 143.5t28 143.5t79 114t120 75.5t150 27q82 0 150.5 -27t119.5 -75.5t79 -114t28 -143.5t-28 -144t-79 -114t-119.5 -75t-149.5 -27zM421 104q53 0 98 18t78 51.5t51.5 78t18.5 98.5t-18.5 98.5t-51.5 78t-78 51.5t-98 18
t-97.5 -18t-78 -51.5t-52 -78t-18.5 -98.5q0 -53 18.5 -98t51.5 -78.5t78 -51.5t98 -18zM516 768q-24 0 -41 16.5t-17 41.5t17 41.5t41 16.5q23 0 40.5 -16.5t17.5 -41.5t-17.5 -41.5t-40.5 -16.5zM327 768q-24 0 -41 16.5t-17 41.5t17 41.5t41 16.5q25 0 41.5 -16.5
t16.5 -41.5t-16.5 -41.5t-41.5 -16.5zM248 928v70h346v-70h-346z" />
    <glyph glyph-name="uni022B" unicode="&#x22b;" horiz-adv-x="645" 
d="M322 -7q-82 0 -146 35.5t-101 97.5t-37 141q0 80 37 141.5t101 96.5t146 35q83 0 147.5 -35t101 -96t36.5 -142q0 -79 -36.5 -141t-101 -97.5t-147.5 -35.5zM322 100q46 0 82 20t56.5 58t20.5 89q0 52 -20.5 89.5t-56.5 57.5t-81 20q-46 0 -81.5 -20t-56.5 -57.5
t-21 -89.5q0 -51 21 -89t56.5 -58t80.5 -20zM416 618q-24 0 -41 16.5t-17 41.5t17 41.5t41 16.5q23 0 40.5 -16.5t17.5 -41.5t-17.5 -41.5t-40.5 -16.5zM227 618q-24 0 -41 16.5t-17 41.5t17 41.5t41 16.5q25 0 41.5 -16.5t16.5 -41.5t-16.5 -41.5t-41.5 -16.5zM148 778v70
h346v-70h-346z" />
    <glyph glyph-name="uni022C" unicode="&#x22c;" horiz-adv-x="842" 
d="M422 -10q-82 0 -151 27t-120 75.5t-79 114t-28 143.5t28 143.5t79 114t120 75.5t150 27q82 0 150.5 -27t119.5 -75.5t79 -114t28 -143.5t-28 -144t-79 -114t-119.5 -75t-149.5 -27zM421 104q53 0 98 18t78 51.5t51.5 78t18.5 98.5t-18.5 98.5t-51.5 78t-78 51.5t-98 18
t-97.5 -18t-78 -51.5t-52 -78t-18.5 -98.5q0 -53 18.5 -98t51.5 -78.5t78 -51.5t98 -18zM494 758q-34 0 -58 13.5t-43 27t-37 13.5q-22 0 -32.5 -13t-11.5 -35h-68q1 54 29.5 84t76.5 30q33 0 56.5 -13.5t43 -26.5t38.5 -13q21 0 32 12.5t12 34.5h66q-1 -53 -29 -83.5
t-75 -30.5zM248 928v70h346v-70h-346z" />
    <glyph glyph-name="uni022D" unicode="&#x22d;" horiz-adv-x="645" 
d="M322 -7q-82 0 -146 35.5t-101 97.5t-37 141q0 80 37 141.5t101 96.5t146 35q83 0 147.5 -35t101 -96t36.5 -142q0 -79 -36.5 -141t-101 -97.5t-147.5 -35.5zM322 100q46 0 82 20t56.5 58t20.5 89q0 52 -20.5 89.5t-56.5 57.5t-81 20q-46 0 -81.5 -20t-56.5 -57.5
t-21 -89.5q0 -51 21 -89t56.5 -58t80.5 -20zM394 608q-34 0 -58 13.5t-43 27t-37 13.5q-22 0 -32.5 -13t-11.5 -35h-68q1 54 29.5 84t76.5 30q33 0 56.5 -13.5t43 -26.5t38.5 -13q21 0 32 12.5t12 34.5h66q-1 -53 -29 -83.5t-75 -30.5zM148 778v70h346v-70h-346z" />
    <glyph glyph-name="uni0230" unicode="&#x230;" horiz-adv-x="842" 
d="M422 -10q-82 0 -151 27t-120 75.5t-79 114t-28 143.5t28 143.5t79 114t120 75.5t150 27q82 0 150.5 -27t119.5 -75.5t79 -114t28 -143.5t-28 -144t-79 -114t-119.5 -75t-149.5 -27zM421 104q53 0 98 18t78 51.5t51.5 78t18.5 98.5t-18.5 98.5t-51.5 78t-78 51.5t-98 18
t-97.5 -18t-78 -51.5t-52 -78t-18.5 -98.5q0 -53 18.5 -98t51.5 -78.5t78 -51.5t98 -18zM421 767q-25 0 -42.5 16.5t-17.5 43.5t17.5 43.5t42.5 16.5t42.5 -16.5t17.5 -43.5t-17.5 -43.5t-42.5 -16.5zM248 932v70h346v-70h-346z" />
    <glyph glyph-name="uni0231" unicode="&#x231;" horiz-adv-x="645" 
d="M322 -7q-82 0 -146 35.5t-101 97.5t-37 141q0 80 37 141.5t101 96.5t146 35q83 0 147.5 -35t101 -96t36.5 -142q0 -79 -36.5 -141t-101 -97.5t-147.5 -35.5zM322 100q46 0 82 20t56.5 58t20.5 89q0 52 -20.5 89.5t-56.5 57.5t-81 20q-46 0 -81.5 -20t-56.5 -57.5
t-21 -89.5q0 -51 21 -89t56.5 -58t80.5 -20zM321 617q-25 0 -42.5 16.5t-17.5 43.5t17.5 43.5t42.5 16.5t42.5 -16.5t17.5 -43.5t-17.5 -43.5t-42.5 -16.5zM148 782v70h346v-70h-346z" />
    <glyph glyph-name="uni0232" unicode="&#x232;" horiz-adv-x="661" 
d="M266 0v277l29 -80l-304 503h139l244 -405h-78l246 405h128l-304 -503l30 80v-277h-130zM158 788v75h346v-75h-346z" />
    <glyph glyph-name="uni0233" unicode="&#x233;" horiz-adv-x="578" 
d="M126 -201q-39 0 -78 13t-65 36l50 92q19 -17 43 -27t49 -10q34 0 55 17t39 57l31 70l10 15l202 472h120l-250 -577q-25 -60 -55.5 -95t-68 -49t-82.5 -14zM236 -19l-241 553h130l196 -461zM103 638v75h346v-75h-346z" />
    <glyph glyph-name="uni0237" unicode="&#x237;" horiz-adv-x="295" 
d="M27 -201q-35 0 -66.5 7.5t-53.5 23.5l36 93q29 -21 73 -21q34 0 53 21.5t19 63.5v547h125v-544q0 -88 -48.5 -139.5t-137.5 -51.5z" />
    <glyph glyph-name="uni0259" unicode="&#x259;" horiz-adv-x="622" 
d="M289 540q89 0 155.5 -35t103 -96.5t36.5 -141.5t-35.5 -141.5t-98.5 -97t-142 -35.5q-78 0 -139.5 34.5t-96 97t-34.5 145.5q0 8 0.5 18t1.5 19h444v-83h-378l49 26q0 -45 19.5 -80.5t54 -55.5t79.5 -20t80 20t54.5 56t19.5 83v20q0 49 -22 85.5t-61.5 56.5t-93.5 20
q-45 0 -80 -14t-64 -44l-68 77q37 42 92 64t124 22z" />
    <glyph glyph-name="uni0292" unicode="&#x292;" horiz-adv-x="541" 
d="M238 -201q-76 0 -144.5 22t-112.5 60l46 103q37 -33 91.5 -53t114.5 -20q72 0 111 30t39 84q0 51 -36.5 81.5t-115.5 30.5h-65v87l204 249l12 -47h-374v108h472v-88l-204 -249l-59 39h39q128 0 192 -58.5t64 -152.5q0 -61 -30 -112.5t-90.5 -82.5t-153.5 -31z" />
    <glyph glyph-name="uni02B9" unicode="&#x2b9;" horiz-adv-x="220" 
d="M64 423l-8 277h108l-9 -277h-91z" />
    <glyph glyph-name="uni02BA" unicode="&#x2ba;" horiz-adv-x="413" 
d="M64 423l-8 277h108l-9 -277h-91zM257 423l-8 277h108l-9 -277h-91z" />
    <glyph glyph-name="uni02BB" unicode="&#x2bb;" horiz-adv-x="280" 
d="M210 886l-58 -222l-16 75q35 0 58 -22t23 -59t-23 -59.5t-57 -22.5q-36 0 -59 23t-23 59q0 12 1.5 22.5t6.5 25.5t14 38l53 142h80z" />
    <glyph glyph-name="uni02BC" unicode="&#x2bc;" horiz-adv-x="257" 
d="M55 439l58 222l17 -75q-35 0 -58.5 22t-23.5 59t23.5 59.5t57.5 22.5q35 0 58 -23t23 -59q0 -11 -1.5 -22.5t-6 -26t-14.5 -37.5l-52 -142h-81z" />
    <glyph glyph-name="uni02BE" unicode="&#x2be;" horiz-adv-x="600" 
d="M299 593v53q28 0 46 17.5t18 43.5q0 28 -18.5 45.5t-45.5 17.5v53q35 0 61.5 -16t42 -42t15.5 -58q0 -31 -15.5 -57t-42 -41.5t-61.5 -15.5z" />
    <glyph glyph-name="uni02BF" unicode="&#x2bf;" horiz-adv-x="600" 
d="M299 593q-34 0 -61 15.5t-42.5 41.5t-15.5 57q0 32 15.5 58.5t42.5 42t61 15.5v-53q-26 0 -44.5 -17.5t-18.5 -45.5q0 -26 18 -43.5t45 -17.5v-53z" />
    <glyph glyph-name="circumflex" unicode="&#x2c6;" horiz-adv-x="600" 
d="M109 607l134 137h114l134 -137h-103l-136 115h96l-136 -115h-103z" />
    <glyph glyph-name="caron" unicode="&#x2c7;" horiz-adv-x="600" 
d="M243 607l-134 137h103l136 -114h-96l136 114h103l-134 -137h-114z" />
    <glyph glyph-name="uni02C8" unicode="&#x2c8;" horiz-adv-x="178" 
d="M47 507v193h84v-193h-84z" />
    <glyph glyph-name="uni02C9" unicode="&#x2c9;" horiz-adv-x="600" 
d="M127 638v75h346v-75h-346z" />
    <glyph glyph-name="uni02CA" unicode="&#x2ca;" horiz-adv-x="600" 
d="M216 607l135 137h147l-174 -137h-108z" />
    <glyph glyph-name="uni02CB" unicode="&#x2cb;" horiz-adv-x="600" 
d="M276 607l-174 137h147l135 -137h-108z" />
    <glyph glyph-name="uni02CC" unicode="&#x2cc;" horiz-adv-x="180" 
d="M47 -224v194h86v-194h-86z" />
    <glyph glyph-name="breve" unicode="&#x2d8;" horiz-adv-x="600" 
d="M300 600q-73 0 -121.5 39t-51.5 105h82q2 -35 28 -55t63 -20t63.5 20t27.5 55h82q-3 -66 -51.5 -105t-121.5 -39z" />
    <glyph glyph-name="dotaccent" unicode="&#x2d9;" horiz-adv-x="600" 
d="M300 619q-31 0 -51 20t-20 51t20 51t51 20q30 0 50.5 -20t20.5 -51t-20.5 -51t-50.5 -20z" />
    <glyph glyph-name="ring" unicode="&#x2da;" horiz-adv-x="600" 
d="M299 593q-33 0 -59.5 16t-41.5 41.5t-15 56.5q0 32 15.5 58.5t41.5 42t59 15.5q34 0 60.5 -15.5t41.5 -42t15 -58.5q0 -31 -15 -57t-41.5 -41.5t-60.5 -15.5zM299 644q28 0 46 18t18 45q0 28 -18 46.5t-46 18.5q-26 0 -44.5 -18t-18.5 -47q0 -27 18 -45t45 -18z" />
    <glyph glyph-name="ogonek" unicode="&#x2db;" horiz-adv-x="600" 
d="M229 -228q-62 0 -96 29.5t-34 77.5q0 29 15 57.5t47.5 54t84.5 46.5l55 -37q-42 -19 -68 -37t-38 -36t-12 -38q0 -23 16.5 -36t42.5 -13q17 0 33 4.5t28 11.5l21 -61q-19 -10 -44 -16.5t-51 -6.5z" />
    <glyph glyph-name="tilde" unicode="&#x2dc;" horiz-adv-x="600" 
d="M372 607q-24 0 -43.5 9.5t-35 23t-29.5 23.5t-28 10q-21 0 -34 -16t-15 -44h-67q2 62 30.5 98t77.5 36q24 0 44 -10t35.5 -23t29.5 -23t27 -10q21 0 34.5 15t14.5 42h67q-1 -58 -30 -94.5t-78 -36.5z" />
    <glyph glyph-name="hungarumlaut" unicode="&#x2dd;" horiz-adv-x="600" 
d="M345 607l80 137h125l-107 -137h-98zM157 607l81 137h125l-108 -137h-98z" />
    <glyph glyph-name="gravecomb" unicode="&#x300;" 
d="M276 607l-174 137h147l135 -137h-108z" />
    <glyph glyph-name="acutecomb" unicode="&#x301;" 
d="M216 607l135 137h147l-174 -137h-108z" />
    <glyph glyph-name="uni0302" unicode="&#x302;" 
d="M109 607l134 137h114l134 -137h-103l-136 115h96l-136 -115h-103z" />
    <glyph glyph-name="tildecomb" unicode="&#x303;" 
d="M372 607q-24 0 -43.5 9.5t-35 23t-29.5 23.5t-28 10q-21 0 -34 -16t-15 -44h-67q2 62 30.5 98t77.5 36q24 0 44 -10t35.5 -23t29.5 -23t27 -10q21 0 34.5 15t14.5 42h67q-1 -58 -30 -94.5t-78 -36.5z" />
    <glyph glyph-name="uni0304" unicode="&#x304;" 
d="M127 638v75h346v-75h-346z" />
    <glyph glyph-name="uni0306" unicode="&#x306;" 
d="M300 600q-73 0 -121.5 39t-51.5 105h82q2 -35 28 -55t63 -20t63.5 20t27.5 55h82q-3 -66 -51.5 -105t-121.5 -39z" />
    <glyph glyph-name="uni0307" unicode="&#x307;" 
d="M300 619q-31 0 -51 20t-20 51t20 51t51 20q30 0 50.5 -20t20.5 -51t-20.5 -51t-50.5 -20z" />
    <glyph glyph-name="uni0308" unicode="&#x308;" 
d="M397 618q-25 0 -42.5 16.5t-17.5 43.5t17.5 44t42.5 17t42.5 -17t17.5 -44t-17.5 -43.5t-42.5 -16.5zM203 618q-25 0 -42.5 16.5t-17.5 43.5t17.5 44t42.5 17t42.5 -17t17.5 -44t-17.5 -43.5t-42.5 -16.5z" />
    <glyph glyph-name="hookabovecomb" unicode="&#x309;" 
d="M325 597l-41 46q29 14 41.5 29.5t12.5 34.5q0 20 -14 32t-36 12q-31 0 -60 -19l-27 55q21 15 47 23t53 8q49 0 79.5 -27.5t30.5 -72.5q0 -41 -21 -71t-65 -50z" />
    <glyph glyph-name="uni030A" unicode="&#x30a;" 
d="M299 593q-33 0 -59.5 16t-41.5 41.5t-15 56.5q0 32 15.5 58.5t41.5 42t59 15.5q34 0 60.5 -15.5t41.5 -42t15 -58.5q0 -31 -15 -57t-41.5 -41.5t-60.5 -15.5zM299 644q28 0 46 18t18 45q0 28 -18 46.5t-46 18.5q-26 0 -44.5 -18t-18.5 -47q0 -27 18 -45t45 -18z" />
    <glyph glyph-name="uni030B" unicode="&#x30b;" 
d="M345 607l80 137h125l-107 -137h-98zM157 607l81 137h125l-108 -137h-98z" />
    <glyph glyph-name="uni030C" unicode="&#x30c;" 
d="M243 607l-134 137h103l136 -114h-96l136 114h103l-134 -137h-114z" />
    <glyph glyph-name="uni030F" unicode="&#x30f;" 
d="M345 607l-108 137h125l81 -137h-98zM157 607l-107 137h125l80 -137h-98z" />
    <glyph glyph-name="uni0311" unicode="&#x311;" 
d="M127 607q3 67 51.5 105.5t121.5 38.5t121.5 -38.5t51.5 -105.5h-82q-1 35 -27.5 55.5t-63.5 20.5t-63 -20.5t-28 -55.5h-82z" />
    <glyph glyph-name="uni0312" unicode="&#x312;" 
d="M300 600q-33 0 -50 15t-17 38q0 11 4 24.5t14 32.5l41 92h69l-45 -142l-16 45q32 0 49.5 -14t17.5 -38t-17 -38.5t-50 -14.5z" />
    <glyph glyph-name="uni031B" unicode="&#x31b;" 
d="M280 445v89h21q31 0 46.5 18t15.5 46q0 18 -5.5 34t-14.5 28l77 28q14 -18 22 -42t8 -52q0 -69 -40 -109t-110 -40h-20z" />
    <glyph glyph-name="dotbelowcomb" unicode="&#x323;" 
d="M300 -203q-25 0 -42.5 16t-17.5 43t17.5 44t42.5 17t42.5 -17t17.5 -44t-17.5 -43t-42.5 -16z" />
    <glyph glyph-name="uni0324" unicode="&#x324;" 
d="M391 -199q-24 0 -41 16t-17 42q0 25 17 41.5t41 16.5t41 -16.5t17 -41.5q0 -26 -17 -42t-41 -16zM209 -199q-24 0 -40.5 16t-16.5 42q0 25 16.5 41.5t40.5 16.5t41.5 -16.5t17.5 -41.5q0 -26 -17.5 -42t-41.5 -16z" />
    <glyph glyph-name="uni0326" unicode="&#x326;" 
d="M251 -265l36 122l13 -45q-28 0 -44 14t-16 38q0 23 16.5 38t43.5 15q28 0 44 -15.5t16 -37.5q0 -12 -3 -26t-13 -33l-32 -70h-61z" />
    <glyph glyph-name="uni0327" unicode="&#x327;" 
d="M271 -228q-27 0 -50 5.5t-42 15.5l23 59q16 -8 32.5 -12t35.5 -4q29 0 41 10t12 26q0 15 -12.5 24t-40.5 9h-31l27 102h68l-14 -56q44 -5 65.5 -28.5t21.5 -55.5q0 -44 -37 -69.5t-99 -25.5z" />
    <glyph glyph-name="uni0328" unicode="&#x328;" 
d="M229 -228q-62 0 -96 29.5t-34 77.5q0 29 15 57.5t47.5 54t84.5 46.5l55 -37q-42 -19 -68 -37t-38 -36t-12 -38q0 -23 16.5 -36t42.5 -13q17 0 33 4.5t28 11.5l21 -61q-19 -10 -44 -16.5t-51 -6.5z" />
    <glyph glyph-name="uni032E" unicode="&#x32e;" 
d="M300 -213q-73 0 -121.5 37t-51.5 99h78q0 -33 27.5 -52t67.5 -19t67.5 19t27.5 52h78q-3 -62 -51.5 -99t-121.5 -37z" />
    <glyph glyph-name="uni0331" unicode="&#x331;" 
d="M127 -178v74h346v-74h-346z" />
    <glyph glyph-name="uni0335" unicode="&#x335;" 
d="M98 396v82h404v-82h-404z" />
    <glyph glyph-name="uni0336" unicode="&#x336;" 
d="M41 388v96h819v-96h-819z" />
    <glyph glyph-name="uni0337" unicode="&#x337;" 
d="M107 243l-52 70l294 223l51 -71z" />
    <glyph glyph-name="uni0338" unicode="&#x338;" 
d="M60 -70l440 672h70l-440 -672h-70z" />
    <glyph glyph-name="uni0394" unicode="&#x394;" horiz-adv-x="749" 
d="M438 700l316 -700h-759l315 700h128zM146 47l-37 63h527l-37 -63l-252 585h52z" />
    <glyph glyph-name="uni03A9" unicode="&#x3a9;" horiz-adv-x="894" 
d="M9 0v110h173q-52 46 -81 110.5t-29 144.5q0 76 28 139.5t79 109.5t119.5 71t148.5 25t148 -25t119.5 -71t79.5 -109.5t28 -139.5q0 -80 -29.5 -144.5t-80.5 -110.5h173v-110h-356v102q79 40 121 107t42 147q0 54 -18 98.5t-50.5 76t-77.5 48.5t-99 17t-99 -17
t-77.5 -48.5t-50.5 -76t-18 -98.5q0 -80 42 -147.5t121 -106.5v-102h-356z" />
    <glyph glyph-name="uni03BC" unicode="&#x3bc;" horiz-adv-x="686" 
d="M82 -194v728h125v-288q0 -72 33 -107.5t93 -35.5q44 0 76.5 18t51 54t18.5 89v270h125v-534h-117v143l20 -31q-15 -44 -43 -70t-62 -37.5t-68 -11.5q-53 0 -92 21t-61 61l26 43v-312h-125z" />
    <glyph glyph-name="pi" unicode="&#x3c0;" horiz-adv-x="726" 
d="M30 256q-20 25 -31 60t-11 64q0 44 23.5 79t64.5 55t96 20h544v-99h-529q-42 0 -66.5 -17.5t-24.5 -57.5q0 -18 8 -38t19 -37zM170 0l52 457h120l-52 -457h-120zM459 0v457h120v-457h-120z" />
    <glyph glyph-name="uni0400" unicode="&#x400;" horiz-adv-x="670" 
d="M218 409h348v-107h-348v107zM228 109h395v-109h-525v700h511v-109h-381v-482zM331 757l-174 137h147l135 -137h-108z" />
    <glyph glyph-name="uni0401" unicode="&#x401;" horiz-adv-x="670" 
d="M218 409h348v-107h-348v107zM228 109h395v-109h-525v700h511v-109h-381v-482zM452 768q-25 0 -42.5 16.5t-17.5 43.5t17.5 44t42.5 17t42.5 -17t17.5 -44t-17.5 -43.5t-42.5 -16.5zM258 768q-25 0 -42.5 16.5t-17.5 43.5t17.5 44t42.5 17t42.5 -17t17.5 -44t-17.5 -43.5
t-42.5 -16.5z" />
    <glyph glyph-name="uni0402" unicode="&#x402;" horiz-adv-x="841" 
d="M247 0v622l30 -32h-262v110h618v-110h-288l31 32v-622h-129zM486 2l14 106q30 -8 60.5 -7t58 12.5t44 34.5t16.5 60q0 46 -27 73.5t-72 36.5t-102.5 -1t-119.5 -38l-2 114q97 33 179.5 36.5t144 -19.5t95 -73t33.5 -126q0 -70 -27 -115.5t-73.5 -70t-104 -30t-117.5 6.5z
" />
    <glyph glyph-name="uni0403" unicode="&#x403;" horiz-adv-x="585" 
d="M99 0v700h475l-1 -110h-377l30 31l1 -621h-128zM244 757l135 137h147l-174 -137h-108z" />
    <glyph glyph-name="uni0404" unicode="&#x404;" horiz-adv-x="711" 
d="M495 396v-103h-361v103h361zM404 -10q-76 0 -141.5 26.5t-114 75t-75 114.5t-26.5 144t26.5 144t75 114.5t114 75t141.5 26.5q89 0 161.5 -30t120.5 -87l-82 -80q-39 42 -87 62.5t-106 20.5q-51 0 -93.5 -18.5t-74 -51t-48 -77.5t-16.5 -99t16.5 -99t48 -77.5t74 -51
t93.5 -18.5q58 0 106 20.5t87 62.5l82 -80q-48 -57 -120.5 -87t-161.5 -30z" />
    <glyph glyph-name="uni0405" unicode="&#x405;" horiz-adv-x="645" 
d="M320 -10q-82 0 -157 23.5t-119 60.5l45 101q42 -33 104 -55t127 -22q55 0 89 12t50 32.5t16 46.5q0 32 -23 51.5t-59.5 31t-81 21.5t-89 23.5t-81 35t-59.5 57.5t-23 92q0 57 30.5 104.5t93 76t158.5 28.5q63 0 125 -16t108 -46l-41 -101q-47 28 -97 41.5t-96 13.5
q-54 0 -87.5 -13t-49 -34t-15.5 -48q0 -32 22.5 -51.5t59 -30.5t81.5 -21.5t89.5 -23.5t81 -34t59 -57t22.5 -91q0 -56 -30.5 -103.5t-93.5 -76t-159 -28.5z" />
    <glyph glyph-name="uni0406" unicode="&#x406;" horiz-adv-x="326" 
d="M99 0v700h128v-700h-128z" />
    <glyph glyph-name="uni0407" unicode="&#x407;" horiz-adv-x="319" 
d="M94 0v700h130v-700h-130zM256 768q-25 0 -42.5 16.5t-17.5 43.5t17.5 44t42.5 17t43 -17t18 -44t-18 -43.5t-43 -16.5zM62 768q-25 0 -42.5 16.5t-17.5 43.5t17.5 44t42.5 17t43 -17t18 -44t-18 -43.5t-43 -16.5z" />
    <glyph glyph-name="uni0408" unicode="&#x408;" horiz-adv-x="554" 
d="M231 -10q-67 0 -123.5 26t-92.5 75l74 89q29 -40 63.5 -60t75.5 -20q109 0 109 129v362h-249v109h379v-464q0 -124 -60.5 -185t-175.5 -61z" />
    <glyph glyph-name="uni0409" unicode="&#x409;" horiz-adv-x="1186" 
d="M85 -10q-17 0 -34 3t-37 7l9 113q14 -4 30 -4q42 0 67 34.5t36 101.5t15 165l10 290h515v-700h-128v622l30 -32h-333l28 33l-7 -208q-3 -104 -14 -183t-33.5 -132.5t-59.5 -81.5t-94 -28zM890 463q125 0 193 -56t68 -168q0 -118 -74.5 -178.5t-207.5 -60.5h-301v700h128
v-237h194zM863 100q75 0 116.5 35t41.5 102q0 66 -41 96.5t-117 30.5h-167v-264h167z" />
    <glyph glyph-name="uni040A" unicode="&#x40a;" horiz-adv-x="1176" 
d="M99 0v700h128v-271h350v271h128v-700h-128v319h-350v-319h-128zM705 68l-30 32h193q69 0 106.5 31t37.5 87t-37.5 85.5t-106.5 29.5h-193l30 33v-298zM577 0v700h128v-304l-30 37h222q117 0 182 -55t65 -155q0 -106 -70 -164.5t-193 -58.5h-304z" />
    <glyph glyph-name="uni040B" unicode="&#x40b;" horiz-adv-x="849" 
d="M245 0v622l31 -32h-262v110h612v-110h-282l30 32v-622h-129zM355 383q56 21 106.5 31t96.5 10q113 0 180.5 -59.5t67.5 -182.5v-182h-128v165q0 73 -40 109.5t-109 36.5q-74 0 -172 -46z" />
    <glyph glyph-name="uni040C" unicode="&#x40c;" horiz-adv-x="722" 
d="M561 0l-237 341l105 65l279 -406h-147zM98 0v700h128v-700h-128zM187 295v112h236v-112h-236zM441 335l-119 16l239 349h138zM283 757l135 137h147l-174 -137h-108z" />
    <glyph glyph-name="uni040D" unicode="&#x40d;" horiz-adv-x="822" 
d="M99 0v700h128v-497l376 497h121v-700h-128v496l-376 -496h-121zM386 757l-174 137h147l135 -137h-108z" />
    <glyph glyph-name="uni040E" unicode="&#x40e;" horiz-adv-x="706" 
d="M108 110q55 -19 97 -10t75 61l34 53l13 14l244 472h128l-304 -565q-37 -71 -88 -108t-109.5 -41.5t-121.5 22.5zM324 116l-312 584h139l244 -484zM349 747q-90 0 -135.5 38t-46.5 107h91q1 -37 24.5 -57t66.5 -20t67.5 20t25.5 57h90q-1 -69 -47 -107t-136 -38z" />
    <glyph glyph-name="uni040F" unicode="&#x40f;" horiz-adv-x="807" 
d="M709 700v-700h-246v-154h-120v154h-244v700h128v-590h353v590h129z" />
    <glyph glyph-name="uni0410" unicode="&#x410;" horiz-adv-x="777" 
d="M9 0l315 700h128l316 -700h-136l-271 631h52l-270 -631h-134zM154 162l35 102h378l35 -102h-448z" />
    <glyph glyph-name="uni0411" unicode="&#x411;" horiz-adv-x="735" 
d="M99 0v700h545v-107h-417v-172h207q126 0 191.5 -52.5t65.5 -152.5q0 -103 -72.5 -159.5t-204.5 -56.5h-315zM227 100h180q75 0 114 29t39 84q0 108 -153 108h-180v-221z" />
    <glyph glyph-name="uni0412" unicode="&#x412;" horiz-adv-x="746" 
d="M99 0v700h313q118 0 184 -46.5t66 -133.5q0 -86 -63 -132.5t-166 -46.5l18 36q117 0 181 -47t64 -136q0 -91 -67 -142.5t-198 -51.5h-332zM227 100h200q68 0 103 25.5t35 78.5t-35 77.5t-103 24.5h-200v-206zM227 401h174q63 0 96 25.5t33 73.5q0 50 -33 75t-96 25h-174
v-199z" />
    <glyph glyph-name="uni0413" unicode="&#x413;" horiz-adv-x="585" 
d="M99 0v700h475l-1 -110h-377l30 31l1 -621h-128z" />
    <glyph glyph-name="uni0414" unicode="&#x414;" horiz-adv-x="816" 
d="M563 60v530h-274l-5 -124q-3 -70 -8.5 -132.5t-17 -113.5t-31.5 -85t-49 -45l-140 20q38 -2 62.5 26t38.5 78t21 117.5t10 146.5l8 222h513v-640h-128zM14 -149l1 259h777v-259h-120v149h-537v-149h-121z" />
    <glyph glyph-name="uni0415" unicode="&#x415;" horiz-adv-x="670" 
d="M218 409h348v-107h-348v107zM228 109h395v-109h-525v700h511v-109h-381v-482z" />
    <glyph glyph-name="uni0416" unicode="&#x416;" horiz-adv-x="1052" 
d="M886 0l-204 341l110 65l244 -406h-150zM552 295v112h211v-112h-211zM799 335l-121 16l205 349h138zM166 0h-150l244 406l111 -65zM590 0h-127v700h127v-700zM501 295h-212v112h212v-112zM254 335l-223 365h138l204 -349z" />
    <glyph glyph-name="uni0417" unicode="&#x417;" horiz-adv-x="649" 
d="M29 69l42 95q45 -31 98.5 -47.5t106.5 -17.5t96.5 12t69.5 39t26 65q0 47 -38.5 70.5t-104.5 23.5h-163v102h153q59 0 91.5 24t32.5 65q0 34 -21.5 56t-58 33t-82 10.5t-94.5 -14t-93 -39.5l-41 105q66 35 138.5 49t140.5 8t122.5 -31t87.5 -65.5t33 -95.5
q0 -50 -26.5 -88.5t-72.5 -59.5t-107 -21l5 32q69 0 120.5 -23.5t80 -64.5t28.5 -95q0 -51 -26 -90.5t-71 -66t-103 -39t-122 -9.5t-127.5 22t-120.5 56z" />
    <glyph glyph-name="uni0418" unicode="&#x418;" horiz-adv-x="822" 
d="M99 0v700h128v-497l376 497h121v-700h-128v496l-376 -496h-121z" />
    <glyph glyph-name="uni0419" unicode="&#x419;" horiz-adv-x="822" 
d="M99 0v700h128v-497l376 497h121v-700h-128v496l-376 -496h-121zM410 747q-90 0 -135.5 38t-46.5 107h91q1 -37 24.5 -57t66.5 -20t67.5 20t25.5 57h90q-1 -69 -47 -107t-136 -38z" />
    <glyph glyph-name="uni041A" unicode="&#x41a;" horiz-adv-x="722" 
d="M561 0l-237 341l105 65l279 -406h-147zM98 0v700h128v-700h-128zM187 295v112h236v-112h-236zM441 335l-119 16l239 349h138z" />
    <glyph glyph-name="uni041B" unicode="&#x41b;" horiz-adv-x="795" 
d="M85 -10q-17 0 -34 3t-37 7l9 113q14 -4 30 -4q42 0 67 34.5t36 101.5t15 165l10 290h515v-700h-128v622l30 -32h-333l28 33l-7 -208q-3 -104 -14 -183t-33.5 -132.5t-59.5 -81.5t-94 -28z" />
    <glyph glyph-name="uni041C" unicode="&#x41c;" horiz-adv-x="963" 
d="M99 0v700h106l307 -511h-57l302 511h106l2 -700h-124l-1 507h26l-256 -427h-58l-260 427h30v-507h-123z" />
    <glyph glyph-name="uni041D" unicode="&#x41d;" horiz-adv-x="818" 
d="M590 700h130v-700h-130v700zM228 0h-130v700h130v-700zM600 300h-383v111h383v-111z" />
    <glyph glyph-name="uni041E" unicode="&#x41e;" horiz-adv-x="845" 
d="M423 -10q-82 0 -151 27t-120 75.5t-79 114t-28 143.5t28 143.5t79 114t120 75.5t150 27q82 0 150.5 -27t119.5 -75.5t79 -114t28 -143.5t-28 -144t-79 -114t-119.5 -75t-149.5 -27zM422 104q53 0 98 18t78 51.5t51.5 78t18.5 98.5t-18.5 98.5t-51.5 78t-78 51.5t-98 18
t-97.5 -18t-78 -51.5t-52 -78t-18.5 -98.5q0 -53 18.5 -98t51.5 -78.5t78 -51.5t98 -18z" />
    <glyph glyph-name="uni041F" unicode="&#x41f;" horiz-adv-x="817" 
d="M99 0v700h619v-700h-128v622l30 -32h-423l30 32v-622h-128z" />
    <glyph glyph-name="uni0420" unicode="&#x420;" horiz-adv-x="719" 
d="M98 0v700h288q93 0 159.5 -30t102.5 -86t36 -133t-36 -133t-102.5 -86t-159.5 -30h-216l58 61v-263h-130zM228 249l-58 63h210q86 0 129.5 36.5t43.5 102.5q0 67 -43.5 103t-129.5 36h-210l58 64v-405z" />
    <glyph glyph-name="uni0421" unicode="&#x421;" horiz-adv-x="721" 
d="M420 -10q-80 0 -148.5 26.5t-119 75t-78.5 114.5t-28 144t28 144t79 114.5t119 75t149 26.5q86 0 157 -29.5t120 -87.5l-84 -79q-38 41 -85 61.5t-102 20.5t-100.5 -18t-79 -51t-52 -78t-18.5 -99t18.5 -99t52 -78t79 -51t100.5 -18t102 20.5t85 62.5l84 -80
q-49 -57 -120 -87t-158 -30z" />
    <glyph glyph-name="uni0422" unicode="&#x422;" horiz-adv-x="620" 
d="M245 0v622l31 -32h-262v110h592v-110h-262l30 32v-622h-129z" />
    <glyph glyph-name="uni0423" unicode="&#x423;" horiz-adv-x="706" 
d="M108 110q55 -19 97 -10t75 61l34 53l13 14l244 472h128l-304 -565q-37 -71 -88 -108t-109.5 -41.5t-121.5 22.5zM324 116l-312 584h139l244 -484z" />
    <glyph glyph-name="uni0424" unicode="&#x424;" horiz-adv-x="937" 
d="M454 45q-132 0 -224.5 36t-141.5 104.5t-49 165.5q0 99 49 167t141.5 104t224.5 36h9.5h15h8.5q131 0 223 -36t140 -104.5t48 -166.5q0 -96 -47.5 -165t-138 -105t-220.5 -36h-10.5h-17h-10.5zM467 146h6h5q97 1 162.5 24t99 68.5t33.5 113.5t-34 113t-99 68t-160 23h-6
h-7q-99 0 -166.5 -22.5t-101 -68t-33.5 -114.5t35.5 -114.5t102.5 -68t163 -22.5zM409 -28v756h120v-756h-120z" />
    <glyph glyph-name="uni0425" unicode="&#x425;" horiz-adv-x="692" 
d="M29 700h150l165 -234l165 234h152l-235 -336l254 -364h-154l-182 255l-181 -255h-150l253 359z" />
    <glyph glyph-name="uni0426" unicode="&#x426;" horiz-adv-x="834" 
d="M99 0v700h128v-590h353v590h129v-700h-610zM693 -154v186l29 -32h-142v110h233v-264h-120z" />
    <glyph glyph-name="uni0427" unicode="&#x427;" horiz-adv-x="742" 
d="M535 272q-55 -23 -107 -34t-101 -11q-134 0 -206.5 64.5t-72.5 185.5v223h129v-209q0 -74 43 -113t123 -39q48 0 96.5 11t93.5 34zM515 0v700h129v-700h-129z" />
    <glyph glyph-name="uni0428" unicode="&#x428;" horiz-adv-x="1097" 
d="M514 110l-29 -32v622h128v-622l-31 32h319l-31 -32v622h128v-700h-899v700h128v-622l-30 32h317z" />
    <glyph glyph-name="uni0429" unicode="&#x429;" horiz-adv-x="1125" 
d="M514 110l-29 -32v622h128v-622l-31 32h319l-31 -32v622h128v-700h-899v700h128v-622l-30 32h317zM979 -149v181l31 -32h-143v110h232v-259h-120z" />
    <glyph glyph-name="uni042A" unicode="&#x42a;" horiz-adv-x="836" 
d="M541 463q125 0 193 -56t68 -168q0 -118 -74.5 -178.5t-208.5 -60.5h-300v590h-205v110h333v-237h194zM514 100q75 0 116 35t41 102q0 66 -40.5 96.5t-116.5 30.5h-167v-264h167z" />
    <glyph glyph-name="uni042B" unicode="&#x42b;" horiz-adv-x="1010" 
d="M421 463q125 0 193 -56t68 -168q0 -118 -74.5 -178.5t-207.5 -60.5h-301v700h128v-237h194zM394 100q75 0 116.5 35t41.5 102q0 66 -41 96.5t-117 30.5h-167v-264h167zM783 0v700h128v-700h-128z" />
    <glyph glyph-name="uni042C" unicode="&#x42c;" horiz-adv-x="717" 
d="M421 463q125 0 193 -56t68 -168q0 -118 -74.5 -178.5t-207.5 -60.5h-301v700h128v-237h194zM394 100q75 0 116.5 35t41.5 102q0 66 -41 96.5t-117 30.5h-167v-264h167z" />
    <glyph glyph-name="uni042D" unicode="&#x42d;" horiz-adv-x="710" 
d="M215 304v103h361v-103h-361zM306 710q77 0 142 -26.5t113.5 -75t75 -114.5t26.5 -144t-26.5 -144t-75 -114.5t-113.5 -75t-142 -26.5q-89 0 -161.5 30t-120.5 87l82 80q39 -42 87.5 -62.5t105.5 -20.5q50 0 93 18.5t74 51t48 77.5t17 99t-17 99t-48 77.5t-74 51t-93 18.5
q-57 0 -105.5 -20.5t-87.5 -62.5l-82 80q48 57 120.5 87t161.5 30z" />
    <glyph glyph-name="uni042E" unicode="&#x42e;" horiz-adv-x="1106" 
d="M99 0v700h128v-287h181v-116h-181v-297h-128zM697 -10q-78 0 -144 27t-115 75t-76.5 114t-27.5 144t27.5 144t76.5 114t115 75t144 27q77 0 143.5 -27t115.5 -75t76 -114t27 -144t-27 -144t-76 -114t-115.5 -75t-143.5 -27zM697 104q49 0 91.5 18t73.5 51t48.5 77.5
t17.5 99.5t-17.5 99.5t-48.5 77.5t-73.5 51t-91.5 18t-91 -18t-73.5 -51t-49 -77.5t-17.5 -99.5t17.5 -99.5t49 -77.5t73.5 -51t91 -18z" />
    <glyph glyph-name="uni042F" unicode="&#x42f;" horiz-adv-x="732" 
d="M505 0v224l32 -29h-205q-88 0 -151.5 29.5t-97.5 85t-34 133.5q0 81 36 138.5t102 88t155 30.5h291v-700h-128zM51 0l173 250h131l-167 -250h-137zM505 266v360l32 -36h-191q-80 0 -122.5 -36.5t-42.5 -108.5q0 -69 40.5 -106.5t119.5 -37.5h196z" />
    <glyph glyph-name="uni0430" unicode="&#x430;" horiz-adv-x="597" 
d="M408 0v108l-7 23v189q0 55 -33 85.5t-100 30.5q-45 0 -88.5 -14t-73.5 -39l-49 91q43 33 102.5 49.5t123.5 16.5q116 0 179.5 -55.5t63.5 -171.5v-313h-118zM240 -7q-60 0 -105 20.5t-69.5 57t-24.5 82.5q0 45 21.5 81t70.5 57t130 21h155v-83h-146q-64 0 -86 -20.5
t-22 -50.5q0 -34 27 -54t75 -20q46 0 82.5 21t52.5 62l21 -75q-18 -47 -64.5 -73t-117.5 -26z" />
    <glyph glyph-name="uni0431" unicode="&#x431;" horiz-adv-x="667" 
d="M339 -10q-66 0 -118 20t-89.5 61.5t-57.5 105.5t-20 152q0 64 11 117t33 95.5t55.5 75.5t78.5 55t102 34l248 53l18 -112l-225 -46q-19 -4 -45.5 -11.5t-54 -22t-51 -41t-38 -68t-14.5 -103.5q0 -19 1.5 -28.5t3 -20t1.5 -30.5l-47 49q20 51 55.5 87.5t83 56t103.5 19.5
q75 0 133 -31t91 -87t33 -127q0 -74 -36 -131t-101.5 -89.5t-153.5 -32.5zM349 91q45 0 79.5 19.5t54 53.5t19.5 76t-19.5 73.5t-54 50.5t-81.5 19q-45 0 -80.5 -18t-55 -49.5t-19.5 -72.5q0 -42 20 -77t55.5 -55t81.5 -20z" />
    <glyph glyph-name="uni0432" unicode="&#x432;" horiz-adv-x="619" 
d="M84 0v534h261q97 0 152.5 -36t55.5 -102q0 -65 -52 -101.5t-138 -36.5l15 31q97 0 144.5 -35.5t47.5 -103.5q0 -71 -53 -110.5t-161 -39.5h-272zM203 91h143q51 0 77 16.5t26 50.5q0 36 -24 53t-75 17h-147v-137zM203 311h131q48 0 72.5 17.5t24.5 49.5q0 33 -24.5 49
t-72.5 16h-131v-132z" />
    <glyph glyph-name="uni0433" unicode="&#x433;" horiz-adv-x="501" 
d="M84 0v534h410v-106h-314l29 28v-456h-125z" />
    <glyph glyph-name="uni0434" unicode="&#x434;" horiz-adv-x="682" 
d="M450 58v370h-205l-3 -86q-2 -46 -6 -88.5t-13 -78t-26 -58.5t-45 -30l-124 19q30 0 48.5 19.5t29 54t15.5 79t7 92.5l7 183h440v-476h-125zM9 -119v225h645v-225h-117v119h-412v-119h-116z" />
    <glyph glyph-name="uni0435" unicode="&#x435;" horiz-adv-x="637" 
d="M333 -7q-89 0 -155.5 35.5t-103 97.5t-36.5 141q0 80 35.5 141.5t98 96.5t142.5 35q78 0 139 -34t96 -96t35 -146q0 -8 -0.5 -18t-1.5 -19h-445v83h379l-49 -26q1 46 -19 81t-54.5 55t-79.5 20q-46 0 -80.5 -20t-54 -55.5t-19.5 -83.5v-20q0 -48 22 -85t62 -57t92 -20
q45 0 81 14t64 44l67 -77q-36 -42 -90.5 -64.5t-124.5 -22.5z" />
    <glyph glyph-name="uni0436" unicode="&#x436;" horiz-adv-x="879" 
d="M721 0l-156 256l102 63l203 -319h-149zM464 214v104h179v-104h-179zM679 252l-118 14l162 268h133zM157 0h-148l202 319l102 -63zM501 0h-124v534h124v-534zM414 214h-178v104h178v-104zM199 252l-177 282h133l161 -268z" />
    <glyph glyph-name="uni0437" unicode="&#x437;" horiz-adv-x="553" 
d="M253 -9q74 0 131.5 21t90.5 58.5t33 86.5q0 61 -51 96.5t-140 35.5l-4 -27q52 0 92.5 17t64 47.5t23.5 68.5q0 46 -33 80t-90 52t-130 15q-48 -1 -96.5 -13.5t-99.5 -35.5l32 -92q44 19 86.5 29t82.5 10q38 0 65 -7.5t41.5 -22t14.5 -33.5t-12 -33t-34.5 -21t-54.5 -7
h-93v-84h103q51 0 78.5 -16.5t27.5 -48.5q0 -22 -16.5 -39t-46.5 -25.5t-72 -8.5q-49 0 -98 12t-88 34l-35 -93q48 -27 107.5 -41.5t120.5 -14.5z" />
    <glyph glyph-name="uni0438" unicode="&#x438;" horiz-adv-x="702" 
d="M84 0v534h125v-352l295 352h114v-534h-125v352l-294 -352h-115z" />
    <glyph glyph-name="uni0439" unicode="&#x439;" horiz-adv-x="702" 
d="M84 0v534h125v-352l295 352h114v-534h-125v352l-294 -352h-115zM343 597q-80 0 -123 37.5t-44 109.5h83q1 -36 22.5 -57t60.5 -21q38 0 60.5 21t23.5 57h85q-1 -72 -44.5 -109.5t-123.5 -37.5z" />
    <glyph glyph-name="uni043A" unicode="&#x43a;" horiz-adv-x="618" 
d="M467 0l-193 256l102 63l238 -319h-147zM84 0v534h125v-534h-125zM172 214v104h181v-104h-181zM388 252l-117 14l196 268h134z" />
    <glyph glyph-name="uni043B" unicode="&#x43b;" horiz-adv-x="652" 
d="M6 1l6 105q7 -1 13 -2t11 -1q31 0 48 19t25.5 51.5t12 73t5.5 81.5l9 206h432v-534h-125v462l29 -34h-254l27 35l-7 -141q-3 -71 -11.5 -131.5t-26 -105.5t-48 -70t-77.5 -25q-15 0 -32.5 3t-36.5 8z" />
    <glyph glyph-name="uni043C" unicode="&#x43c;" horiz-adv-x="806" 
d="M84 0v534h131l215 -379h-52l226 379h117l1 -534h-113v400l20 -13l-200 -331h-54l-201 340l24 6v-402h-114z" />
    <glyph glyph-name="uni043D" unicode="&#x43d;" horiz-adv-x="687" 
d="M84 0v534h125v-217h269v217h125v-534h-125v211h-269v-211h-125z" />
    <glyph glyph-name="uni043E" unicode="&#x43e;" horiz-adv-x="646" 
d="M322 -7q-82 0 -146 35.5t-101 97.5t-37 141q0 80 37 141.5t101 96.5t146 35q83 0 147.5 -35t101 -96t36.5 -142q0 -79 -36.5 -141t-101 -97.5t-147.5 -35.5zM322 100q46 0 82 20t56.5 58t20.5 89q0 52 -20.5 89.5t-56.5 57.5t-81 20q-46 0 -81.5 -20t-56.5 -57.5
t-21 -89.5q0 -51 21 -89t56.5 -58t80.5 -20z" />
    <glyph glyph-name="uni043F" unicode="&#x43f;" horiz-adv-x="681" 
d="M84 0v534h512v-534h-124v457l29 -29h-321l29 29v-457h-125z" />
    <glyph glyph-name="uni0440" unicode="&#x440;" horiz-adv-x="691" 
d="M380 -7q-65 0 -118.5 30t-85 90.5t-31.5 153.5q0 94 30.5 154t83.5 89.5t121 29.5q79 0 139.5 -34t96 -95t35.5 -144t-35.5 -144.5t-96 -95.5t-139.5 -34zM84 -194v728h119v-126l-4 -142l10 -142v-318h-125zM366 100q45 0 80.5 20t56.5 58t21 89q0 52 -21 89.5
t-56.5 57.5t-80.5 20t-81 -20t-57 -57.5t-21 -89.5q0 -51 21 -89t57 -58t81 -20z" />
    <glyph glyph-name="uni0441" unicode="&#x441;" horiz-adv-x="581" 
d="M327 -7q-84 0 -149.5 35.5t-102.5 97.5t-37 141q0 80 37 141.5t102.5 96.5t149.5 35q78 0 137.5 -31.5t90.5 -92.5l-96 -56q-24 38 -58.5 56t-74.5 18q-46 0 -83 -20t-58 -57.5t-21 -89.5t21 -89.5t58 -57.5t83 -20q40 0 74.5 18t58.5 56l96 -56q-31 -60 -90.5 -92.5
t-137.5 -32.5z" />
    <glyph glyph-name="uni0442" unicode="&#x442;" horiz-adv-x="514" 
d="M195 0v458l29 -30h-217v106h500v-106h-216l29 30v-458h-125z" />
    <glyph glyph-name="uni0443" unicode="&#x443;" horiz-adv-x="591" 
d="M132 -201q-39 0 -78 13t-65 36l50 92q19 -17 43 -27t49 -10q34 0 55 17t39 57l31 70l10 15l202 472h120l-250 -577q-25 -60 -55.5 -95t-68 -49t-82.5 -14zM242 -19l-241 553h130l196 -461z" />
    <glyph glyph-name="uni0444" unicode="&#x444;" horiz-adv-x="827" 
d="M423 -10h-8.5h-14h-8.5q-169 2 -262 73.5t-93 204.5q0 132 93 202t265 72h8.5h13h7.5q173 0 269.5 -70.5t96.5 -203.5q0 -134 -96.5 -206t-270.5 -72zM419 94q85 0 140 19.5t82 58t27 96.5q0 57 -27 94.5t-82 56t-140 18.5h-9.5h-9.5q-83 0 -136 -19.5t-78.5 -56.5
t-25.5 -93q0 -57 25.5 -95t79 -58t135.5 -21h9.5h9.5zM354 -194v936h118v-936h-118z" />
    <glyph glyph-name="uni0445" unicode="&#x445;" horiz-adv-x="564" 
d="M5 0l235 306l-2 -67l-224 295h139l157 -210h-53l158 210h135l-226 -295l1 67l234 -306h-141l-165 223l52 -7l-162 -216h-138z" />
    <glyph glyph-name="uni0446" unicode="&#x446;" horiz-adv-x="697" 
d="M84 0v534h125v-428h255v428h125v-534h-505zM553 -119v122l29 -3h-118v106h206v-225h-117z" />
    <glyph glyph-name="uni0447" unicode="&#x447;" horiz-adv-x="621" 
d="M421 211q-38 -18 -80.5 -29.5t-89.5 -11.5q-101 0 -157 47t-56 146v171h125v-163q0 -53 30.5 -77t84.5 -24q36 0 72 9t71 25v-93zM412 0v534h125v-534h-125z" />
    <glyph glyph-name="uni0448" unicode="&#x448;" horiz-adv-x="955" 
d="M443 106l-27 -30v458h125v-458l-30 30h264l-29 -30v458h125v-534h-787v534h125v-458l-29 30h263z" />
    <glyph glyph-name="uni0449" unicode="&#x449;" horiz-adv-x="955" 
d="M443 106l-27 -30v458h125v-458l-30 30h264l-29 -30v458h125v-534h-787v534h125v-458l-29 30h263zM831 -110v141l29 -31h-118v106h206v-216h-117z" />
    <glyph glyph-name="uni044A" unicode="&#x44a;" horiz-adv-x="660" 
d="M426 359q102 0 155 -46.5t53 -129.5q0 -88 -59.5 -135.5t-168.5 -47.5h-241v428h-158v106h283v-175h136zM400 92q53 0 80 24t27 70q0 86 -107 86h-110v-180h110z" />
    <glyph glyph-name="uni044B" unicode="&#x44b;" horiz-adv-x="832" 
d="M623 0v534h125v-534h-125zM344 358q103 0 156.5 -46t53.5 -130q0 -87 -59.5 -135.5t-168.5 -47.5l-242 1v534h125v-175zM315 91q55 -1 84 23t29 70t-28.5 66.5t-84.5 21.5l-106 1v-181z" />
    <glyph glyph-name="uni044C" unicode="&#x44c;" horiz-adv-x="589" 
d="M352 358q103 0 157 -46t54 -130q0 -87 -60 -135.5t-169 -47.5l-250 1v534h125v-175zM323 91q55 -1 84 23t29 70t-28.5 66.5t-84.5 21.5l-114 1v-181z" />
    <glyph glyph-name="uni044D" unicode="&#x44d;" horiz-adv-x="581" 
d="M177 225v90h290v-90h-290zM250 542q86 0 152 -35.5t104 -97t38 -142.5q0 -80 -38 -142.5t-104 -98t-152 -35.5q-72 0 -132 24t-100 69l72 70q32 -31 70.5 -47t84.5 -16q54 0 95 22.5t65 62.5t24 91q0 52 -24 91.5t-65 62t-95 22.5q-46 0 -84.5 -16t-70.5 -48l-72 70
q40 45 100 69t132 24z" />
    <glyph glyph-name="uni044E" unicode="&#x44e;" horiz-adv-x="889" 
d="M84 0v534h125v-207h159v-113h-159v-214h-125zM572 -7q-80 0 -142.5 35.5t-98.5 97.5t-36 141q0 80 36 142t98.5 96.5t142.5 34.5q81 0 143.5 -34.5t98.5 -96.5t36 -142q0 -79 -36 -141.5t-98.5 -97.5t-143.5 -35zM572 99q45 0 79.5 21t54.5 58t20 89t-20 89.5t-54.5 57.5
t-78.5 20t-79 -20t-55 -57.5t-20 -89.5t20 -89t55 -58t78 -21z" />
    <glyph glyph-name="uni044F" unicode="&#x44f;" horiz-adv-x="619" 
d="M423 0v182l18 -21h-160q-110 0 -172.5 46.5t-62.5 134.5q0 94 66.5 143t177.5 49h245v-534h-112zM39 0l144 204h128l-138 -204h-134zM423 222v240l18 -33h-147q-58 0 -89.5 -21.5t-31.5 -69.5q0 -90 117 -90h151z" />
    <glyph glyph-name="uni0450" unicode="&#x450;" horiz-adv-x="637" 
d="M333 -7q-89 0 -155.5 35.5t-103 97.5t-36.5 141q0 80 35.5 141.5t98 96.5t142.5 35q78 0 139 -34t96 -96t35 -146q0 -8 -0.5 -18t-1.5 -19h-445v83h379l-49 -26q1 46 -19 81t-54.5 55t-79.5 20q-46 0 -80.5 -20t-54 -55.5t-19.5 -83.5v-20q0 -48 22 -85t62 -57t92 -20
q45 0 81 14t64 44l67 -77q-36 -42 -90.5 -64.5t-124.5 -22.5zM288 607l-174 137h147l135 -137h-108z" />
    <glyph glyph-name="uni0451" unicode="&#x451;" horiz-adv-x="637" 
d="M333 -7q-89 0 -155.5 35.5t-103 97.5t-36.5 141q0 80 35.5 141.5t98 96.5t142.5 35q78 0 139 -34t96 -96t35 -146q0 -8 -0.5 -18t-1.5 -19h-445v83h379l-49 -26q1 46 -19 81t-54.5 55t-79.5 20q-46 0 -80.5 -20t-54 -55.5t-19.5 -83.5v-20q0 -48 22 -85t62 -57t92 -20
q45 0 81 14t64 44l67 -77q-36 -42 -90.5 -64.5t-124.5 -22.5zM409 618q-25 0 -42.5 16.5t-17.5 43.5t17.5 44t42.5 17t42.5 -17t17.5 -44t-17.5 -43.5t-42.5 -16.5zM215 618q-25 0 -42.5 16.5t-17.5 43.5t17.5 44t42.5 17t42.5 -17t17.5 -44t-17.5 -43.5t-42.5 -16.5z" />
    <glyph glyph-name="uni0452" unicode="&#x452;" horiz-adv-x="680" 
d="M424 -201q-35 0 -66.5 7.5t-53.5 23.5l37 93q28 -21 73 -21q34 0 52.5 21.5t18.5 63.5v303q0 71 -33 106t-94 35q-44 0 -78 -18t-52.5 -53.5t-18.5 -89.5v-270h-125v742h120v-352l-22 44q28 51 81.5 78.5t123.5 27.5q65 0 115 -25t79 -76.5t29 -132.5v-316
q0 -88 -48 -139.5t-138 -51.5zM-14 595v81h450v-81h-450z" />
    <glyph glyph-name="uni0453" unicode="&#x453;" horiz-adv-x="501" 
d="M84 0v534h410v-106h-314l29 28v-456h-125zM207 605l135 137h147l-174 -137h-108z" />
    <glyph glyph-name="uni0454" unicode="&#x454;" horiz-adv-x="584" 
d="M405 309v-90h-290v90h290zM332 -8q-85 0 -151.5 35t-104.5 97.5t-38 142.5q0 81 38 142.5t104.5 97.5t151.5 36q73 0 132.5 -24t99.5 -69l-72 -70q-31 32 -70 47.5t-85 15.5q-53 0 -94.5 -22.5t-65 -62t-23.5 -91.5t23.5 -91.5t65 -62t94.5 -22.5q46 0 85 16t70 48
l72 -70q-40 -45 -99.5 -69t-132.5 -24z" />
    <glyph glyph-name="uni0455" unicode="&#x455;" horiz-adv-x="544" 
d="M263 -7q-67 0 -128.5 17.5t-97.5 42.5l48 95q36 -23 86 -38t100 -15q59 0 85.5 16t26.5 43q0 22 -18 33.5t-47 17.5t-64.5 11t-71 13.5t-64.5 25t-47 44.5t-18 74q0 51 29 88.5t81.5 58t124.5 20.5q54 0 109 -12t91 -34l-48 -95q-38 23 -76.5 31.5t-76.5 8.5
q-57 0 -84.5 -17t-27.5 -43q0 -24 18 -36t47 -19t64.5 -11.5t70.5 -13.5t64.5 -24.5t47.5 -43.5t18 -73q0 -50 -29.5 -87t-83.5 -57.5t-129 -20.5z" />
    <glyph glyph-name="uni0456" unicode="&#x456;" horiz-adv-x="294" 
d="M84 0v534h125v-534h-125zM147 622q-35 0 -57.5 22t-22.5 53q0 32 22.5 53.5t57.5 21.5t57.5 -20.5t22.5 -51.5q0 -33 -22 -55.5t-58 -22.5z" />
    <glyph glyph-name="uni0457" unicode="&#x457;" horiz-adv-x="289" 
d="M82 0v534h125v-534h-125zM222 619q-25 0 -41.5 17t-16.5 42t16.5 42.5t41.5 17.5q24 0 40.5 -17t16.5 -43t-16.5 -42.5t-40.5 -16.5zM69 619q-25 0 -41.5 17t-16.5 42t16.5 42.5t41.5 17.5q24 0 40.5 -17t16.5 -43t-16.5 -42.5t-40.5 -16.5z" />
    <glyph glyph-name="uni0458" unicode="&#x458;" horiz-adv-x="295" 
d="M25 -201q-35 0 -66.5 7.5t-53.5 23.5l36 93q29 -21 73 -21q34 0 53 21.5t19 63.5v547h125v-544q0 -88 -48.5 -139.5t-137.5 -51.5zM148 622q-35 0 -57.5 22t-22.5 53q0 32 22.5 53.5t57.5 21.5t57.5 -20.5t22.5 -51.5q0 -33 -22 -55.5t-58 -22.5z" />
    <glyph glyph-name="uni0459" unicode="&#x459;" horiz-adv-x="948" 
d="M6 1l6 105q7 -1 13 -2t11 -1q31 0 48 19t25.5 51.5t12 73t5.5 81.5l9 206h432v-534h-125v462l29 -34h-254l27 35l-7 -141q-3 -71 -11.5 -131.5t-26 -105.5t-48 -70t-77.5 -25q-15 0 -32.5 3t-36.5 8zM711 358q103 0 157 -46t54 -130q0 -87 -60 -135.5t-169 -47.5l-250 1
v534h125v-175zM682 91q55 -1 84 23t29 70t-28.5 66.5t-84.5 21.5l-114 1v-181z" />
    <glyph glyph-name="uni045A" unicode="&#x45a;" horiz-adv-x="962" 
d="M735 335q98 0 151 -41.5t53 -119.5q0 -82 -59 -128t-163 -46h-249v229h-259v-229h-125v534h125v-199h259v199h125v-199h142zM709 90q50 0 76 20.5t26 56.5t-26 54t-76 18h-116v-149h116z" />
    <glyph glyph-name="uni045B" unicode="&#x45b;" horiz-adv-x="679" 
d="M-40 600v69h474v-69h-474zM387 540q65 0 115 -25t79 -76.5t29 -132.5v-306h-125v290q0 71 -33 106t-94 35q-44 0 -78 -18t-52.5 -53.5t-18.5 -89.5v-270h-125v742h125v-352l-27 44q28 51 81.5 78.5t123.5 27.5z" />
    <glyph glyph-name="uni045C" unicode="&#x45c;" horiz-adv-x="618" 
d="M467 0l-193 256l102 63l238 -319h-147zM84 0v534h125v-534h-125zM172 214v104h181v-104h-181zM388 252l-117 14l196 268h134zM234 607l135 137h147l-174 -137h-108z" />
    <glyph glyph-name="uni045D" unicode="&#x45d;" horiz-adv-x="702" 
d="M84 0v534h125v-352l295 352h114v-534h-125v352l-294 -352h-115zM319 607l-174 137h147l135 -137h-108z" />
    <glyph glyph-name="uni045E" unicode="&#x45e;" horiz-adv-x="591" 
d="M132 -201q-39 0 -78 13t-65 36l50 92q19 -17 43 -27t49 -10q34 0 55 17t39 57l31 70l10 15l202 472h120l-250 -577q-25 -60 -55.5 -95t-68 -49t-82.5 -14zM242 -19l-241 553h130l196 -461zM283 597q-80 0 -123 37.5t-44 109.5h83q1 -36 22.5 -57t60.5 -21q38 0 60.5 21
t23.5 57h85q-1 -72 -44.5 -109.5t-123.5 -37.5z" />
    <glyph glyph-name="uni045F" unicode="&#x45f;" horiz-adv-x="653" 
d="M568 534v-534h-182v-119h-118v119h-184v534h125v-428h235v428h124z" />
    <glyph glyph-name="uni0462" unicode="&#x462;" horiz-adv-x="820" 
d="M201 0v742h128v-284h199q126 0 192 -57t66 -166q0 -113 -72.5 -174t-206.5 -61h-306zM329 100h173q75 0 113.5 33.5t38.5 97.5q0 127 -152 127h-173v-258zM18 548v91h522v-91h-522z" />
    <glyph glyph-name="uni0463" unicode="&#x463;" horiz-adv-x="630" 
d="M-1 477v86h445v-86h-445zM393 358q103 0 157 -46t54 -130q0 -87 -60 -135.5t-169 -47.5l-250 1v742h125v-383zM364 91q55 -1 84 23t29 70t-28.5 66.5t-84.5 21.5l-114 1v-181z" />
    <glyph glyph-name="uni046A" unicode="&#x46a;" horiz-adv-x="921" 
d="M15 0l63 152q30 80 67.5 129.5t82.5 72.5t97 24h1l-224 239v83h717v-80l-226 -242h1q54 -1 100 -24.5t83.5 -72.5t66.5 -129l62 -152h-134l-47 122q-30 88 -73 125.5t-98 37.5h-34v-285h-120v285h-31q-57 0 -100.5 -37t-73.5 -126l-46 -122h-134zM246 603l215 -225h1
l213 225h-429z" />
    <glyph glyph-name="uni046B" unicode="&#x46b;" horiz-adv-x="735" 
d="M11 0l45 112q25 66 54.5 105.5t66.5 57t83 17.5h215q48 0 85 -17.5t66.5 -57t52.5 -105.5l45 -112h-122l-32 85q-20 67 -49 95t-74 28h-28v-208h-107v208h-24q-44 0 -74 -28t-50 -95l-31 -85h-122zM365 291l158 160h-314zM266 267l-187 191v76h573v-76l-188 -191h-198z
" />
    <glyph glyph-name="uni0472" unicode="&#x472;" horiz-adv-x="845" 
d="M422 710q82 0 150.5 -26.5t119.5 -75t79 -114.5t28 -144t-28 -144t-79 -114.5t-119.5 -75t-150.5 -26.5q-81 0 -150 27t-120 75.5t-79 114.5t-28 143t28 143t79 114.5t120 75.5t150 27zM422 596q-46 0 -87 -14.5t-73 -40.5t-53 -62.5t-29 -80.5h483q-7 44 -28 80.5
t-53 62.5t-72.5 40.5t-87.5 14.5zM422 104q47 0 87.5 14t72.5 40.5t53 63t28 80.5h-482q7 -44 28 -80.5t53 -63t73 -40.5t87 -14z" />
    <glyph glyph-name="uni0473" unicode="&#x473;" horiz-adv-x="655" 
d="M327 540q85 0 150 -34.5t102.5 -96.5t37.5 -142q0 -79 -37.5 -141.5t-102.5 -97.5t-149 -35t-149.5 35t-103 97.5t-37.5 141.5q0 80 37.5 142t103 96.5t148.5 34.5zM327 445q-43 0 -78 -16.5t-57.5 -47t-30.5 -72.5h333q-7 42 -30.5 72.5t-58 47t-78.5 16.5zM328 89
q43 0 77.5 16.5t58 47t30.5 72.5h-333q8 -42 31 -72.5t58 -47t78 -16.5z" />
    <glyph glyph-name="uni0474" unicode="&#x474;" horiz-adv-x="776" 
d="M297 0l-286 700h141l210 -515l134 366q38 102 99.5 138t166.5 10l-13 -124q-60 14 -92.5 -9t-58.5 -94l-172 -472h-129z" />
    <glyph glyph-name="uni0475" unicode="&#x475;" horiz-adv-x="621" 
d="M235 0l-233 534h137l200 -470h-77l137 362q20 54 48 82.5t69.5 34.5t98.5 -9l-13 -121q-30 8 -48.5 5t-31 -21t-27.5 -57l-135 -340h-125z" />
    <glyph glyph-name="uni048A" unicode="&#x48a;" horiz-adv-x="856" 
d="M99 0v700h128v-497l376 497h121v-700h-128v496l-376 -496h-121zM410 747q-90 0 -135.5 38t-46.5 107h91q1 -37 24.5 -57t66.5 -20t67.5 20t25.5 57h90q-1 -69 -47 -107t-136 -38zM648 -149l40 181l48 -32h-140v110h230l-75 -259h-103z" />
    <glyph glyph-name="uni048B" unicode="&#x48b;" horiz-adv-x="726" 
d="M84 0v534h125v-352l295 352h114v-534h-125v352l-294 -352h-115zM343 600q-73 0 -121.5 39t-51.5 105h82q2 -35 28 -55t63 -20t63.5 20t27.5 55h82q-3 -66 -51.5 -105t-121.5 -39zM538 -110l33 141l76 -31h-154v106h208l-63 -216h-100z" />
    <glyph glyph-name="uni048C" unicode="&#x48c;" horiz-adv-x="745" 
d="M125 0v742h128v-284h200q126 0 191.5 -57t65.5 -166q0 -113 -72.5 -174t-206.5 -61h-306zM253 100h173q75 0 113.5 33.5t38.5 97.5q0 127 -152 127h-173v-258zM28 548v91h435v-91h-435z" />
    <glyph glyph-name="uni048D" unicode="&#x48d;" horiz-adv-x="622" 
d="M118 0v534h125v-191l143 -1q103 -1 157 -42t54 -124q0 -87 -60 -132.5t-170 -44.5zM357 89q55 0 84 21.5t29 66.5q0 46 -28.5 62t-84.5 17l-114 1v-167zM19 394v85h418v-85h-418z" />
    <glyph glyph-name="uni048E" unicode="&#x48e;" horiz-adv-x="734" 
d="M99 0v700h288q92 0 158.5 -30.5t102.5 -87t36 -136.5t-36 -137t-102.5 -87.5t-158.5 -30.5h-190l32 33v-224h-130zM229 266l-32 35h184q84 0 128 37.5t44 107.5t-44 107t-128 37h-184l32 36v-360zM663 130l-63 -51l-261 341l62 51z" />
    <glyph glyph-name="uni048F" unicode="&#x48f;" horiz-adv-x="702" 
d="M395 -7q-72 0 -123 31.5t-78.5 93t-27.5 148.5q0 89 26.5 150t77.5 92.5t125 31.5q73 0 131 -34t93 -95t35 -145q0 -83 -35 -144t-93 -95t-131 -34zM84 -194v728h120v-126l-4 -142l10 -142v-318h-126zM369 99q46 0 82.5 20t57.5 57.5t21 89.5t-21 89.5t-57.5 58
t-82.5 20.5t-82.5 -20.5t-57.5 -58t-21 -89.5t21 -89.5t57.5 -57.5t82.5 -20zM638 -15l-61 -48l-209 260l64 50z" />
    <glyph glyph-name="uni0490" unicode="&#x490;" horiz-adv-x="588" 
d="M99 0v700h355v144h120v-254h-347v-590h-128z" />
    <glyph glyph-name="uni0491" unicode="&#x491;" horiz-adv-x="484" 
d="M84 0v534h275v109h117v-215h-267v-428h-125z" />
    <glyph glyph-name="uni0492" unicode="&#x492;" horiz-adv-x="629" 
d="M25 277v90h516v-90h-516zM130 0v700h475l-1 -110h-377l30 31l1 -621h-128z" />
    <glyph glyph-name="uni0493" unicode="&#x493;" horiz-adv-x="532" 
d="M38 186v82h406v-82h-406zM104 0v534h410v-106h-314l29 28v-456h-125z" />
    <glyph glyph-name="uni0494" unicode="&#x494;" horiz-adv-x="705" 
d="M99 0v700h495v-110h-397l30 32v-622h-128zM319 -141l22 104q54 -11 98 6.5t70.5 59t26.5 100.5q0 47 -18.5 82t-49.5 55.5t-72 25.5t-87 -7t-92 -41l-4 109q71 32 137 40t123 -5t100 -46t67 -84.5t24 -119.5q0 -72 -27 -130.5t-74.5 -97t-109.5 -52.5t-134 1z" />
    <glyph glyph-name="uni0495" unicode="&#x495;" horiz-adv-x="613" 
d="M84 0v534h401v-106h-305l29 30v-458h-125zM249 -192l26 105q60 -10 103 4.5t65.5 49t22.5 83.5q0 46 -18 76t-48.5 44.5t-67.5 16t-75 -10t-72 -32.5l-3 108q64 28 124.5 35.5t113 -5t91.5 -42.5t61 -77t22 -108q0 -65 -25.5 -117.5t-71.5 -86.5t-109 -46.5t-139 3.5z
" />
    <glyph glyph-name="uni0496" unicode="&#x496;" horiz-adv-x="1088" 
d="M886 0l-204 341l110 65l244 -406h-150zM552 295v112h211v-112h-211zM799 335l-121 16l205 349h138zM166 0h-150l244 406l111 -65zM590 0h-127v700h127v-700zM501 295h-212v112h212v-112zM254 335l-223 365h138l204 -349zM954 -149v181l31 -32h-99v110h188v-259h-120z" />
    <glyph glyph-name="uni0497" unicode="&#x497;" horiz-adv-x="909" 
d="M721 0l-156 256l102 63l203 -319h-149zM464 214v104h179v-104h-179zM679 252l-118 14l162 268h133zM157 0h-148l202 319l102 -63zM501 0h-124v534h124v-534zM414 214h-178v104h178v-104zM199 252l-177 282h133l161 -268zM789 -111v141l28 -30h-95v104h180v-215h-113z" />
    <glyph glyph-name="uni0498" unicode="&#x498;" horiz-adv-x="649" 
d="M29 69l42 95q45 -31 98.5 -47.5t106.5 -17.5t96.5 12t69.5 39t26 65q0 47 -38.5 70.5t-104.5 23.5h-163v102h153q59 0 91.5 24t32.5 65q0 34 -21.5 56t-58 33t-82 10.5t-94.5 -14t-93 -39.5l-41 105q66 35 138.5 49t140.5 8t122.5 -31t87.5 -65.5t33 -95.5
q0 -50 -26.5 -88.5t-72.5 -59.5t-107 -21l5 32q69 0 120.5 -23.5t80 -64.5t28.5 -95q0 -51 -26 -90.5t-71 -66t-103 -39t-122 -9.5t-127.5 22t-120.5 56zM366 27v-176h-121v176h121z" />
    <glyph glyph-name="uni0499" unicode="&#x499;" horiz-adv-x="553" 
d="M253 -9q74 0 131.5 21t90.5 58.5t33 86.5q0 61 -51 96.5t-140 35.5l-4 -27q52 0 92.5 17t64 47.5t23.5 68.5q0 46 -33 80t-90 52t-130 15q-48 -1 -96.5 -13.5t-99.5 -35.5l32 -92q44 19 86.5 29t82.5 10q38 0 65 -7.5t41.5 -22t14.5 -33.5t-12 -33t-34.5 -21t-54.5 -7
h-93v-84h103q51 0 78.5 -16.5t27.5 -48.5q0 -22 -16.5 -39t-46.5 -25.5t-72 -8.5q-49 0 -98 12t-88 34l-35 -93q48 -27 107.5 -41.5t120.5 -14.5zM317 25h-118v-135h118v135z" />
    <glyph glyph-name="uni049A" unicode="&#x49a;" horiz-adv-x="763" 
d="M561 0l-237 341l105 65l279 -406h-147zM98 0v700h128v-700h-128zM187 295v112h236v-112h-236zM441 335l-119 16l239 349h138zM629 -149v181l31 -32h-99v110h188v-259h-120z" />
    <glyph glyph-name="uni049B" unicode="&#x49b;" horiz-adv-x="618" 
d="M467 0l-193 256l102 63l238 -319h-147zM84 0v534h125v-534h-125zM172 214v104h181v-104h-181zM388 252l-117 14l196 268h134zM534 -111v141l28 -30h-95v104h180v-215h-113z" />
    <glyph glyph-name="uni049C" unicode="&#x49c;" horiz-adv-x="756" 
d="M589 0l-211 341l106 65l257 -406h-152zM98 0v700h128v-700h-128zM187 295v112h269v-112h-269zM283 166v371h86v-371h-86zM495 335l-120 16l211 349h138z" />
    <glyph glyph-name="uni049D" unicode="&#x49d;" horiz-adv-x="634" 
d="M480 0l-160 256l100 62l206 -318h-146zM81 0v534h125v-534h-125zM170 214v104h217v-104h-217zM431 253l-114 14l165 267h130zM246 125v284h79v-284h-79z" />
    <glyph glyph-name="uni049E" unicode="&#x49e;" horiz-adv-x="745" 
d="M31 536v82h370v-82h-370zM583 0l-237 341l106 65l279 -406h-148zM120 0v700h128v-700h-128zM210 295v112h235v-112h-235zM463 335l-119 16l239 349h138z" />
    <glyph glyph-name="uni049F" unicode="&#x49f;" horiz-adv-x="617" 
d="M-5 595v83l359 -2v-81h-359zM465 0l-192 256l102 63l238 -319h-148zM84 0v742h125v-742h-125zM172 214v104h180v-104h-180zM386 252l-117 14l198 268h133z" />
    <glyph glyph-name="uni04A0" unicode="&#x4a0;" horiz-adv-x="844" 
d="M14 590v110h333v-110h-333zM682 0l-237 341l106 65l279 -406h-148zM219 0v700h128v-700h-128zM309 295v112h235v-112h-235zM562 335l-119 16l239 349h138z" />
    <glyph glyph-name="uni04A1" unicode="&#x4a1;" horiz-adv-x="698" 
d="M7 430v104h282v-104h-282zM547 0l-193 256l102 63l238 -319h-147zM164 0v534h125v-534h-125zM252 214v104h182v-104h-182zM468 252l-117 14l196 268h134z" />
    <glyph glyph-name="uni04A2" unicode="&#x4a2;" horiz-adv-x="849" 
d="M590 700h130v-700h-130v700zM228 0h-130v700h130v-700zM600 300h-383v111h383v-111zM705 -149v181l31 -32h-143v110h232v-259h-120z" />
    <glyph glyph-name="uni04A3" unicode="&#x4a3;" horiz-adv-x="711" 
d="M84 0v534h125v-217h269v217h125v-534h-125v211h-269v-211h-125zM567 -110v141l29 -31h-118v106h206v-216h-117z" />
    <glyph glyph-name="uni04A4" unicode="&#x4a4;" horiz-adv-x="1083" 
d="M590 700h130v-700h-130v700zM228 0h-130v700h130v-700zM600 300h-383v111h383v-111zM594 0v700h475l-1 -110h-377l30 31l1 -621h-128z" />
    <glyph glyph-name="uni04A5" unicode="&#x4a5;" horiz-adv-x="895" 
d="M84 0v534h125v-217h269v217h125v-534h-125v211h-269v-211h-125zM478 0v534h410v-106h-314l29 28v-456h-125z" />
    <glyph glyph-name="uni04A6" unicode="&#x4a6;" horiz-adv-x="1187" 
d="M808 -141l21 104q42 -8 77 0t62 30.5t41.5 57.5t14.5 78q0 47 -17 81t-47.5 54.5t-71 25.5t-87 -6t-96.5 -40l-3 109q70 32 136.5 40t123.5 -5t100 -46.5t67 -85t24 -118.5q0 -72 -27 -130.5t-74.5 -97t-109.5 -52.5t-134 1zM99 0v700h619v-700h-128v622l30 -32h-423
l30 32v-622h-128z" />
    <glyph glyph-name="uni04A7" unicode="&#x4a7;" horiz-adv-x="985" 
d="M84 0v534h501v-534h-125v457l29 -29h-309l29 29v-457h-125zM622 -192l26 105q61 -10 103.5 4.5t65.5 49t23 83.5q0 46 -18 76t-48.5 44.5t-67.5 16t-75.5 -10t-71.5 -32.5l-3 108q64 28 124.5 35.5t112.5 -5t91.5 -42.5t61.5 -77t22 -108q0 -65 -25.5 -117.5t-71.5 -86.5
t-109 -46.5t-140 3.5z" />
    <glyph glyph-name="uni04A8" unicode="&#x4a8;" horiz-adv-x="976" 
d="M447 -10q-86 0 -158.5 27.5t-126 78t-82.5 121t-29 157.5q0 100 43.5 188.5t123.5 145.5l103 -55q-66 -51 -103 -126.5t-37 -158.5q0 -85 37 -149.5t102 -99.5t151 -35q69 0 125.5 22.5t97.5 65t63 102t22 132.5q0 60 -17.5 103.5t-50.5 67t-79 23.5q-48 0 -82 -25
t-52 -69.5t-18 -106.5q0 -89 33 -156t91 -107.5t135 -50.5t165 16l11 -93q-89 -24 -172 -17.5t-154 38t-124 85.5t-82.5 126.5t-29.5 158.5q0 93 35 162.5t98.5 109t147.5 39.5q82 0 143.5 -37t95 -102.5t33.5 -151.5q0 -73 -23 -138t-65.5 -118t-100 -92t-126 -60
t-144.5 -21z" />
    <glyph glyph-name="uni04A9" unicode="&#x4a9;" horiz-adv-x="819" 
d="M373 -10q-99 0 -173.5 37.5t-116.5 104.5t-42 157q0 77 35 144.5t98 110.5l99 -52q-51 -40 -79 -94t-28 -114q0 -61 28 -107t79 -71t120 -25q75 0 130.5 29t86 81.5t30.5 123.5q0 39 -13.5 67.5t-38 44t-58.5 15.5q-35 0 -61 -16.5t-40 -46.5t-14 -71q0 -66 27 -113.5
t73.5 -76t108.5 -35.5t133 10l6 -88q-71 -19 -139.5 -14.5t-127.5 28.5t-104 65t-70 97.5t-25 124.5q0 72 29 125t81.5 83t124.5 30q69 0 120 -27.5t78.5 -77t27.5 -117.5q0 -71 -29.5 -131t-82 -105t-122.5 -70.5t-151 -25.5z" />
    <glyph glyph-name="uni04AA" unicode="&#x4aa;" horiz-adv-x="721" 
d="M420 -10q-80 0 -148.5 26.5t-119 75t-78.5 114.5t-28 144t28 144t79 114.5t119 75t149 26.5q86 0 157 -29.5t120 -87.5l-84 -79q-38 41 -85 61.5t-102 20.5t-100.5 -18t-79 -51t-52 -78t-18.5 -99t18.5 -99t52 -78t79 -51t100.5 -18t102 20.5t85 62.5l84 -80
q-49 -57 -120 -87t-158 -30zM463 27v-176h-121v176h121z" />
    <glyph glyph-name="uni04AB" unicode="&#x4ab;" horiz-adv-x="581" 
d="M327 -7q-84 0 -149.5 35.5t-102.5 97.5t-37 141q0 80 37 141.5t102.5 96.5t149.5 35q78 0 137.5 -31.5t90.5 -92.5l-96 -56q-24 38 -58.5 56t-74.5 18q-46 0 -83 -20t-58 -57.5t-21 -89.5t21 -89.5t58 -57.5t83 -20q40 0 74.5 18t58.5 56l96 -56q-31 -60 -90.5 -92.5
t-137.5 -32.5zM374 25v-135h-118v135h118z" />
    <glyph glyph-name="uni04AC" unicode="&#x4ac;" horiz-adv-x="620" 
d="M245 0v622l31 -32h-262v110h592v-110h-262l30 32v-622h-129zM357 -149v181l31 -32h-143v110h232v-259h-120z" />
    <glyph glyph-name="uni04AD" unicode="&#x4ad;" horiz-adv-x="514" 
d="M195 0v458l29 -30h-217v106h500v-106h-216l29 30v-458h-125zM284 -110v141l29 -31h-118v106h206v-216h-117z" />
    <glyph glyph-name="Ustraitcy" unicode="&#x4ae;" horiz-adv-x="688" 
d="M279 0v277l30 -80l-305 503h139l245 -405h-78l245 405h128l-304 -503l30 80v-277h-130z" />
    <glyph glyph-name="ustraitcy" unicode="&#x4af;" horiz-adv-x="593" 
d="M257 -61l-254 595h130l198 -471h-64l203 471h120l-256 -595h-77zM359 60v-254h-126v254h126z" />
    <glyph glyph-name="Ustraitstrokecy" unicode="&#x4b0;" horiz-adv-x="688" 
d="M122 213v81h436v-81h-436zM279 0v277l30 -80l-305 503h139l245 -405h-78l245 405h128l-304 -503l30 80v-277h-130z" />
    <glyph glyph-name="ustraitstrokecy" unicode="&#x4b1;" horiz-adv-x="593" 
d="M69 -35v81h452v-81h-452zM257 -61l-254 595h130l198 -471h-64l203 471h120l-256 -595h-77zM359 60v-254h-126v254h126z" />
    <glyph glyph-name="uni04B2" unicode="&#x4b2;" horiz-adv-x="725" 
d="M29 700h150l165 -234l165 234h152l-235 -336l254 -364h-154l-182 255l-181 -255h-150l253 359zM595 -149v181l31 -32h-99v110h188v-259h-120z" />
    <glyph glyph-name="uni04B3" unicode="&#x4b3;" horiz-adv-x="564" 
d="M5 0l235 306l-2 -67l-224 295h139l157 -210h-53l158 210h135l-226 -295l1 67l234 -306h-141l-165 223l52 -7l-162 -216h-138zM485 -111v141l28 -30h-95v104h180v-215h-113z" />
    <glyph glyph-name="uni04B4" unicode="&#x4b4;" horiz-adv-x="983" 
d="M247 0v622l30 -32h-262v110h557v-110h-227l31 32v-622h-129zM247 -1v700h129v-590h352v590h129v-700h-610zM841 -154v185l29 -32h-142v110h234v-263h-121z" />
    <glyph glyph-name="uni04B5" unicode="&#x4b5;" horiz-adv-x="786" 
d="M196 0v534h124v-428h236v428h124v-534h-484zM638 -110v141l28 -31h-110v106h198v-216h-116zM459 534v-106h-451v106h451z" />
    <glyph glyph-name="uni04B6" unicode="&#x4b6;" horiz-adv-x="773" 
d="M535 272q-55 -23 -107 -34t-101 -11q-134 0 -206.5 64.5t-72.5 185.5v223h129v-209q0 -74 43 -113t123 -39q48 0 96.5 11t93.5 34zM515 0v700h129v-700h-129zM627 -149v181l31 -32h-143v110h232v-259h-120z" />
    <glyph glyph-name="uni04B7" unicode="&#x4b7;" horiz-adv-x="650" 
d="M421 211q-38 -18 -80.5 -29.5t-89.5 -11.5q-101 0 -157 47t-56 146v171h125v-163q0 -53 30.5 -77t84.5 -24q36 0 72 9t71 25v-93zM412 0v534h125v-534h-125zM501 -110v141l29 -31h-118v106h206v-216h-117z" />
    <glyph glyph-name="uni04B8" unicode="&#x4b8;" horiz-adv-x="742" 
d="M296 98v372h86v-372h-86zM534 272q-55 -23 -107 -34t-100 -11q-134 0 -207 64.5t-73 185.5v223h129v-209q0 -74 43 -113t123 -39q48 0 96.5 11t93.5 34zM515 0v700h128v-700h-128z" />
    <glyph glyph-name="uni04B9" unicode="&#x4b9;" horiz-adv-x="621" 
d="M242 77l1 291h79v-291h-80zM420 211q-38 -18 -80 -29.5t-90 -11.5q-101 0 -157 47t-56 146v171h125v-163q0 -53 30.5 -77t84.5 -24q36 0 72.5 9t70.5 25v-93zM411 0v534h125v-534h-125z" />
    <glyph glyph-name="uni04BA" unicode="&#x4ba;" horiz-adv-x="742" 
d="M566 0v209q0 75 -43.5 113.5t-122.5 38.5q-48 0 -97 -11t-93 -34l-3 112q56 23 108.5 34t99.5 11q134 0 206.5 -64.5t72.5 -185.5v-223h-128zM99 0v700h128v-700h-128z" />
    <glyph glyph-name="uni04BB" unicode="&#x4bb;" horiz-adv-x="679" 
d="M387 540q64 0 114.5 -25t79.5 -76.5t29 -132.5v-306h-125v290q0 71 -33.5 106t-93.5 35q-44 0 -78 -18t-52.5 -53.5t-18.5 -89.5v-270h-125v742h125v-352l-27 44q28 51 81.5 78.5t123.5 27.5z" />
    <glyph glyph-name="uni04BC" unicode="&#x4bc;" horiz-adv-x="1004" 
d="M610 -10q-72 0 -139 24t-119.5 69.5t-83 112t-30.5 152.5q0 85 30 152.5t81.5 113.5t117.5 71t138 25t137 -24.5t115.5 -70.5t79.5 -112t29 -150q0 -14 -1.5 -30.5t-3.5 -30.5h-747q-61 0 -103 23.5t-63.5 63.5t-19.5 92t28 107l118 -21q-19 -30 -24.5 -58.5t1.5 -51.5
t27.5 -37.5t52.5 -14.5h634l-31 -45q2 57 -16 102.5t-50 78t-73.5 50t-89.5 17.5t-91 -17.5t-75.5 -50t-51 -78.5t-18.5 -102q0 -58 19.5 -103.5t53.5 -77.5t77.5 -49t91.5 -17q51 0 102.5 20.5t95.5 62.5l95 -82q-63 -58 -140 -86t-154 -28z" />
    <glyph glyph-name="uni04BD" unicode="&#x4bd;" horiz-adv-x="793" 
d="M255 227h-80q-70 0 -109 27t-46 74.5t21 109.5l101 -19q-17 -31 -17 -56t16 -39t50 -14h64v-83zM498 -7q-92 0 -160 35.5t-106 97.5t-38 141q0 80 36.5 141.5t101.5 96.5t146 35t144 -34t99 -96t36 -146q0 -8 -0.5 -18t-2.5 -19h-457v83h390l-51 -26q0 46 -20 81
t-55.5 55t-82.5 20q-46 0 -82 -20t-56 -55.5t-20 -83.5v-20q0 -48 22.5 -85t63.5 -57t96 -20q45 0 82 14t67 44l69 -77q-38 -42 -94 -64.5t-128 -22.5z" />
    <glyph glyph-name="uni04BE" unicode="&#x4be;" horiz-adv-x="1004" 
d="M610 -10q-72 0 -139 24t-119.5 69.5t-83 112t-30.5 152.5q0 85 30 152.5t81.5 113.5t117.5 71t138 25t137 -24.5t115.5 -70.5t79.5 -112t29 -150q0 -14 -1.5 -30.5t-3.5 -30.5h-747q-61 0 -103 23.5t-63.5 63.5t-19.5 92t28 107l118 -21q-19 -30 -24.5 -58.5t1.5 -51.5
t27.5 -37.5t52.5 -14.5h634l-31 -45q2 57 -16 102.5t-50 78t-73.5 50t-89.5 17.5t-91 -17.5t-75.5 -50t-51 -78.5t-18.5 -102q0 -58 19.5 -103.5t53.5 -77.5t77.5 -49t91.5 -17q51 0 102.5 20.5t95.5 62.5l95 -82q-63 -58 -140 -86t-154 -28zM673 27v-176h-121v176h121z" />
    <glyph glyph-name="uni04BF" unicode="&#x4bf;" horiz-adv-x="793" 
d="M255 227h-80q-70 0 -109 27t-46 74.5t21 109.5l101 -19q-17 -31 -17 -56t16 -39t50 -14h64v-83zM498 -7q-92 0 -160 35.5t-106 97.5t-38 141q0 80 36.5 141.5t101.5 96.5t146 35t144 -34t99 -96t36 -146q0 -8 -0.5 -18t-2.5 -19h-457v83h390l-51 -26q0 46 -20 81
t-55.5 55t-82.5 20q-46 0 -82 -20t-56 -55.5t-20 -83.5v-20q0 -48 22.5 -85t63.5 -57t96 -20q45 0 82 14t67 44l69 -77q-38 -42 -94 -64.5t-128 -22.5zM541 25v-135h-118v135h118z" />
    <glyph glyph-name="uni04C0" unicode="&#x4c0;" horiz-adv-x="327" 
d="M99 0v700h129v-700h-129z" />
    <glyph glyph-name="uni04C1" unicode="&#x4c1;" horiz-adv-x="1052" 
d="M886 0l-204 341l110 65l244 -406h-150zM552 295v112h211v-112h-211zM799 335l-121 16l205 349h138zM166 0h-150l244 406l111 -65zM590 0h-127v700h127v-700zM501 295h-212v112h212v-112zM254 335l-223 365h138l204 -349zM527 747q-90 0 -135.5 38t-46.5 107h91
q1 -37 24.5 -57t66.5 -20t67.5 20t25.5 57h90q-1 -69 -47 -107t-136 -38z" />
    <glyph glyph-name="uni04C2" unicode="&#x4c2;" horiz-adv-x="879" 
d="M721 0l-156 256l102 63l203 -319h-149zM464 214v104h179v-104h-179zM679 252l-118 14l162 268h133zM157 0h-148l202 319l102 -63zM501 0h-124v534h124v-534zM414 214h-178v104h178v-104zM199 252l-177 282h133l161 -268zM440 597q-80 0 -123 37.5t-44 109.5h83
q1 -36 22.5 -57t60.5 -21q38 0 60.5 21t23.5 57h85q-1 -72 -44.5 -109.5t-123.5 -37.5z" />
    <glyph glyph-name="uni04C3" unicode="&#x4c3;" horiz-adv-x="728" 
d="M99 0v700h128v-700h-128zM188 295v112h222v-112h-222zM444 339l-122 12l239 349h138zM526 -204q-64 0 -124 30l32 97q36 -18 65 -18q31 0 50 19.5t19 56.5q0 32 -20.5 74t-55 88.5t-78 93.5t-89.5 88l104 69q81 -83 144 -156.5t99.5 -138.5t36.5 -122q0 -85 -49 -133
t-134 -48z" />
    <glyph glyph-name="uni04C4" unicode="&#x4c4;" horiz-adv-x="618" 
d="M418 -202q-59 0 -121 29l33 92q37 -18 68 -18q33 0 53 20t20 55q0 39 -24 85.5t-68 96.5t-102 97l99 65q70 -62 119.5 -122.5t75.5 -117t26 -109.5q0 -54 -22.5 -92.5t-62.5 -59.5t-94 -21zM84 0v534h125v-534h-125zM172 214v104h181v-104h-181zM388 253l-117 13l196 268
h134z" />
    <glyph glyph-name="uni04C6" unicode="&#x4c6;" horiz-adv-x="677" 
d="M6 1l6 105q7 -1 13 -2t11 -1q31 0 48 19t25.5 51.5t12 73t5.5 81.5l9 206h432v-534h-125v462l29 -34h-254l27 35l-7 -141q-3 -71 -11.5 -131.5t-26 -105.5t-48 -70t-77.5 -25q-15 0 -32.5 3t-36.5 8zM488 -110l33 141l76 -31h-154v106h208l-63 -216h-100z" />
    <glyph glyph-name="uni04C7" unicode="&#x4c7;" horiz-adv-x="815" 
d="M409 -169l35 92q24 -15 49.5 -18.5t46.5 3t34.5 25t13.5 46.5v314h-361v-293h-128v700h128v-296h361v296h128v-724q0 -66 -30 -106.5t-76.5 -58t-100 -12.5t-100.5 32z" />
    <glyph glyph-name="uni04C8" unicode="&#x4c8;" horiz-adv-x="692" 
d="M426 -201q-35 0 -67 8t-55 24l35 92q29 -21 70 -21q34 0 54 21.5t20 63.5v224h-274v-211h-125v534h125v-217h274v217h124v-550q0 -84 -47 -134.5t-134 -50.5z" />
    <glyph glyph-name="uni04C9" unicode="&#x4c9;" horiz-adv-x="852" 
d="M590 700h130v-700h-130v700zM228 0h-130v700h130v-700zM600 300h-383v111h383v-111zM645 -149l40 181l48 -32h-140v110h230l-75 -259h-103z" />
    <glyph glyph-name="uni04CA" unicode="&#x4ca;" horiz-adv-x="712" 
d="M84 0v534h125v-217h269v217h125v-534h-125v211h-269v-211h-125zM523 -110l33 141l76 -31h-154v106h208l-63 -216h-100z" />
    <glyph glyph-name="uni04CB" unicode="&#x4cb;" horiz-adv-x="737" 
d="M324 254q-134 0 -206.5 62t-72.5 177v207h129v-193q0 -68 43 -105t122 -37q48 0 96.5 12t94.5 34l1 -111q-54 -23 -106 -34.5t-101 -11.5zM387 -149v259h252v-110h-142l11 32v-181h-121zM510 0v700h129v-700h-129z" />
    <glyph glyph-name="uni04CC" unicode="&#x4cc;" horiz-adv-x="617" 
d="M247 193q-102 0 -157.5 46t-55.5 146v149h125v-141q0 -52 30.5 -76.5t85.5 -24.5q72 0 142 35v-94q-38 -18 -80.5 -29t-89.5 -11zM316 -110v211h206v-101h-118l29 31v-141h-117zM408 0v534h125v-534h-125z" />
    <glyph glyph-name="uni04CD" unicode="&#x4cd;" horiz-adv-x="1008" 
d="M99 0v700h106l307 -511h-57l302 511h106l2 -700h-124l-1 507h26l-256 -427h-58l-260 427h30v-507h-123zM801 -149l40 181l48 -32h-140v110h230l-75 -259h-103z" />
    <glyph glyph-name="uni04CE" unicode="&#x4ce;" horiz-adv-x="843" 
d="M84 0v534h131l215 -379h-52l226 379h117l1 -534h-113v400l20 -13l-200 -331h-54l-201 340l24 6v-402h-114zM654 -110l33 141l76 -31h-154v106h208l-63 -216h-100z" />
    <glyph glyph-name="uni04CF" unicode="&#x4cf;" horiz-adv-x="294" 
d="M84 0v742h125v-742h-125z" />
    <glyph glyph-name="uni04D0" unicode="&#x4d0;" horiz-adv-x="777" 
d="M9 0l315 700h128l316 -700h-136l-271 631h52l-270 -631h-134zM154 162l35 102h378l35 -102h-448zM388 747q-90 0 -135.5 38t-46.5 107h91q1 -37 24.5 -57t66.5 -20t67.5 20t25.5 57h90q-1 -69 -47 -107t-136 -38z" />
    <glyph glyph-name="uni04D1" unicode="&#x4d1;" horiz-adv-x="597" 
d="M408 0v108l-7 23v189q0 55 -33 85.5t-100 30.5q-45 0 -88.5 -14t-73.5 -39l-49 91q43 33 102.5 49.5t123.5 16.5q116 0 179.5 -55.5t63.5 -171.5v-313h-118zM240 -7q-60 0 -105 20.5t-69.5 57t-24.5 82.5q0 45 21.5 81t70.5 57t130 21h155v-83h-146q-64 0 -86 -20.5
t-22 -50.5q0 -34 27 -54t75 -20q46 0 82.5 21t52.5 62l21 -75q-18 -47 -64.5 -73t-117.5 -26zM295 597q-80 0 -123 37.5t-44 109.5h83q1 -36 22.5 -57t60.5 -21q38 0 60.5 21t23.5 57h85q-1 -72 -44.5 -109.5t-123.5 -37.5z" />
    <glyph glyph-name="uni04D2" unicode="&#x4d2;" horiz-adv-x="777" 
d="M9 0l315 700h128l316 -700h-136l-271 631h52l-270 -631h-134zM154 162l35 102h378l35 -102h-448zM485 768q-25 0 -42.5 16.5t-17.5 43.5t17.5 44t42.5 17t42.5 -17t17.5 -44t-17.5 -43.5t-42.5 -16.5zM291 768q-25 0 -42.5 16.5t-17.5 43.5t17.5 44t42.5 17t42.5 -17
t17.5 -44t-17.5 -43.5t-42.5 -16.5z" />
    <glyph glyph-name="uni04D3" unicode="&#x4d3;" horiz-adv-x="597" 
d="M408 0v108l-7 23v189q0 55 -33 85.5t-100 30.5q-45 0 -88.5 -14t-73.5 -39l-49 91q43 33 102.5 49.5t123.5 16.5q116 0 179.5 -55.5t63.5 -171.5v-313h-118zM240 -7q-60 0 -105 20.5t-69.5 57t-24.5 82.5q0 45 21.5 81t70.5 57t130 21h155v-83h-146q-64 0 -86 -20.5
t-22 -50.5q0 -34 27 -54t75 -20q46 0 82.5 21t52.5 62l21 -75q-18 -47 -64.5 -73t-117.5 -26zM392 618q-25 0 -42.5 16.5t-17.5 43.5t17.5 44t42.5 17t42.5 -17t17.5 -44t-17.5 -43.5t-42.5 -16.5zM198 618q-25 0 -42.5 16.5t-17.5 43.5t17.5 44t42.5 17t42.5 -17t17.5 -44
t-17.5 -43.5t-42.5 -16.5z" />
    <glyph glyph-name="uni04D4" unicode="&#x4d4;" horiz-adv-x="1069" 
d="M5 0l406 700h130v-109h-113l79 56l-368 -647h-134zM197 162l4 102h340v-102h-344zM617 409h348v-107h-349zM627 109h395v-109h-525v700h511v-109h-381v-482z" />
    <glyph glyph-name="uni04D5" unicode="&#x4d5;" horiz-adv-x="997" 
d="M257 -7q-102 0 -159 46t-57 119q0 42 21.5 76.5t70.5 55.5t130 21h154v-82h-145q-63 0 -85.5 -20.5t-22.5 -48.5q0 -36 27.5 -56t76.5 -20q63 0 98 32.5t35 84.5v119q0 55 -33 85.5t-99 30.5q-46 0 -89.5 -14t-73.5 -39l-49 91q43 33 102.5 49.5t122.5 16.5q91 0 147 -34
t76 -100l-59 4q33 61 94.5 95.5t139.5 34.5q58 0 107.5 -19.5t86.5 -55.5t57.5 -86t20.5 -110q0 -12 -0.5 -22t-2.5 -18h-444v82h372l-46 -27q1 52 -21 86t-57 52t-74 18q-38 0 -73.5 -18t-58 -53t-22.5 -88v-20q0 -48 22 -85t61.5 -57t92.5 -20q45 0 80 14t65 44l68 -77
q-37 -43 -92.5 -65t-123.5 -22q-62 0 -116.5 18.5t-95.5 57.5t-65 101l75 -1q-14 -68 -51.5 -106.5t-87 -54t-100.5 -15.5z" />
    <glyph glyph-name="uni04D6" unicode="&#x4d6;" horiz-adv-x="670" 
d="M218 409h348v-107h-348v107zM228 109h395v-109h-525v700h511v-109h-381v-482zM355 747q-90 0 -135.5 38t-46.5 107h91q1 -37 24.5 -57t66.5 -20t67.5 20t25.5 57h90q-1 -69 -47 -107t-136 -38z" />
    <glyph glyph-name="uni04D7" unicode="&#x4d7;" horiz-adv-x="637" 
d="M333 -7q-89 0 -155.5 35.5t-103 97.5t-36.5 141q0 80 35.5 141.5t98 96.5t142.5 35q78 0 139 -34t96 -96t35 -146q0 -8 -0.5 -18t-1.5 -19h-445v83h379l-49 -26q1 46 -19 81t-54.5 55t-79.5 20q-46 0 -80.5 -20t-54 -55.5t-19.5 -83.5v-20q0 -48 22 -85t62 -57t92 -20
q45 0 81 14t64 44l67 -77q-36 -42 -90.5 -64.5t-124.5 -22.5zM312 597q-80 0 -123 37.5t-44 109.5h83q1 -36 22.5 -57t60.5 -21q38 0 60.5 21t23.5 57h85q-1 -72 -44.5 -109.5t-123.5 -37.5z" />
    <glyph glyph-name="uni04D8" unicode="&#x4d8;" horiz-adv-x="822" 
d="M403 -10q-73 0 -139.5 24.5t-117.5 70.5t-80 112.5t-29 149.5q0 14 1 27.5t3 27.5h694v-91h-598l31 39q-2 -56 16.5 -102t51 -78.5t75.5 -50t92 -17.5t93 17.5t77.5 50t53 78.5t19.5 102q0 58 -20 103.5t-55.5 77.5t-80 49t-94.5 17q-51 0 -103 -20.5t-98 -62.5l-95 82
q64 58 142.5 86t155.5 28q75 0 142.5 -24t121 -69.5t84 -112t30.5 -152.5q0 -85 -30 -152.5t-83 -113.5t-119.5 -71t-140.5 -25z" />
    <glyph glyph-name="uni04D9" unicode="&#x4d9;" horiz-adv-x="636" 
d="M304 540q89 0 155.5 -35t103 -96.5t36.5 -141.5t-35.5 -141.5t-98.5 -97t-142 -35.5q-78 0 -139.5 34.5t-96 97t-34.5 145.5q0 8 0.5 18t1.5 19h444v-83h-378l49 26q0 -45 19.5 -80.5t53.5 -55.5t80 -20q45 0 80 20t54 56t19 83v20q0 49 -21.5 85.5t-61 56.5t-93.5 20
q-45 0 -80 -14t-64 -44l-68 77q37 42 92 64t124 22z" />
    <glyph glyph-name="uni04DA" unicode="&#x4da;" horiz-adv-x="822" 
d="M403 -10q-73 0 -139.5 24.5t-117.5 70.5t-80 112.5t-29 149.5q0 14 1 27.5t3 27.5h694v-91h-598l31 39q-2 -56 16.5 -102t51 -78.5t75.5 -50t92 -17.5t93 17.5t77.5 50t53 78.5t19.5 102q0 58 -20 103.5t-55.5 77.5t-80 49t-94.5 17q-51 0 -103 -20.5t-98 -62.5l-95 82
q64 58 142.5 86t155.5 28q75 0 142.5 -24t121 -69.5t84 -112t30.5 -152.5q0 -85 -30 -152.5t-83 -113.5t-119.5 -71t-140.5 -25zM509 768q-25 0 -42.5 16.5t-17.5 43.5t17.5 44t42.5 17t42.5 -17t17.5 -44t-17.5 -43.5t-42.5 -16.5zM315 768q-25 0 -42.5 16.5t-17.5 43.5
t17.5 44t42.5 17t42.5 -17t17.5 -44t-17.5 -43.5t-42.5 -16.5z" />
    <glyph glyph-name="uni04DB" unicode="&#x4db;" horiz-adv-x="636" 
d="M304 540q89 0 155.5 -35t103 -96.5t36.5 -141.5t-35.5 -141.5t-98.5 -97t-142 -35.5q-78 0 -139.5 34.5t-96 97t-34.5 145.5q0 8 0.5 18t1.5 19h444v-83h-378l49 26q0 -45 19.5 -80.5t53.5 -55.5t80 -20q45 0 80 20t54 56t19 83v20q0 49 -21.5 85.5t-61 56.5t-93.5 20
q-45 0 -80 -14t-64 -44l-68 77q37 42 92 64t124 22zM422 618q-25 0 -42.5 16.5t-17.5 43.5t17.5 44t42.5 17t42.5 -17t17.5 -44t-17.5 -43.5t-42.5 -16.5zM228 618q-25 0 -42.5 16.5t-17.5 43.5t17.5 44t42.5 17t42.5 -17t17.5 -44t-17.5 -43.5t-42.5 -16.5z" />
    <glyph glyph-name="uni04DC" unicode="&#x4dc;" horiz-adv-x="1052" 
d="M886 0l-204 341l110 65l244 -406h-150zM552 295v112h211v-112h-211zM799 335l-121 16l205 349h138zM166 0h-150l244 406l111 -65zM590 0h-127v700h127v-700zM501 295h-212v112h212v-112zM254 335l-223 365h138l204 -349zM625 768q-25 0 -42.5 16.5t-17.5 43.5t17.5 44
t42.5 17t42.5 -17t17.5 -44t-17.5 -43.5t-42.5 -16.5zM431 768q-25 0 -42.5 16.5t-17.5 43.5t17.5 44t42.5 17t42.5 -17t17.5 -44t-17.5 -43.5t-42.5 -16.5z" />
    <glyph glyph-name="uni04DD" unicode="&#x4dd;" horiz-adv-x="879" 
d="M721 0l-156 256l102 63l203 -319h-149zM464 214v104h179v-104h-179zM679 252l-118 14l162 268h133zM157 0h-148l202 319l102 -63zM501 0h-124v534h124v-534zM414 214h-178v104h178v-104zM199 252l-177 282h133l161 -268zM536 618q-25 0 -42.5 16.5t-17.5 43.5t17.5 44
t42.5 17t42.5 -17t17.5 -44t-17.5 -43.5t-42.5 -16.5zM342 618q-25 0 -42.5 16.5t-17.5 43.5t17.5 44t42.5 17t42.5 -17t17.5 -44t-17.5 -43.5t-42.5 -16.5z" />
    <glyph glyph-name="uni04DE" unicode="&#x4de;" horiz-adv-x="649" 
d="M29 69l42 95q45 -31 98.5 -47.5t106.5 -17.5t96.5 12t69.5 39t26 65q0 47 -38.5 70.5t-104.5 23.5h-163v102h153q59 0 91.5 24t32.5 65q0 34 -21.5 56t-58 33t-82 10.5t-94.5 -14t-93 -39.5l-41 105q66 35 138.5 49t140.5 8t122.5 -31t87.5 -65.5t33 -95.5
q0 -50 -26.5 -88.5t-72.5 -59.5t-107 -21l5 32q69 0 120.5 -23.5t80 -64.5t28.5 -95q0 -51 -26 -90.5t-71 -66t-103 -39t-122 -9.5t-127.5 22t-120.5 56zM419 768q-25 0 -42.5 16.5t-17.5 43.5t17.5 44t42.5 17t42.5 -17t17.5 -44t-17.5 -43.5t-42.5 -16.5zM225 768
q-25 0 -42.5 16.5t-17.5 43.5t17.5 44t42.5 17t42.5 -17t17.5 -44t-17.5 -43.5t-42.5 -16.5z" />
    <glyph glyph-name="uni04DF" unicode="&#x4df;" horiz-adv-x="553" 
d="M253 -9q74 0 131.5 21t90.5 58.5t33 86.5q0 61 -51 96.5t-140 35.5l-4 -27q52 0 92.5 17t64 47.5t23.5 68.5q0 46 -33 80t-90 52t-130 15q-48 -1 -96.5 -13.5t-99.5 -35.5l32 -92q44 19 86.5 29t82.5 10q38 0 65 -7.5t41.5 -22t14.5 -33.5t-12 -33t-34.5 -21t-54.5 -7
h-93v-84h103q51 0 78.5 -16.5t27.5 -48.5q0 -22 -16.5 -39t-46.5 -25.5t-72 -8.5q-49 0 -98 12t-88 34l-35 -93q48 -27 107.5 -41.5t120.5 -14.5zM367 618q-25 0 -42.5 16.5t-17.5 43.5t17.5 44t42.5 17t42.5 -17t17.5 -44t-17.5 -43.5t-42.5 -16.5zM173 618
q-25 0 -42.5 16.5t-17.5 43.5t17.5 44t42.5 17t42.5 -17t17.5 -44t-17.5 -43.5t-42.5 -16.5z" />
    <glyph glyph-name="uni04E0" unicode="&#x4e0;" horiz-adv-x="631" 
d="M299 -10q-79 0 -151.5 21.5t-118.5 57.5l46 102q39 -32 97.5 -51t122.5 -19q77 0 119.5 29t42.5 80q0 48 -40 76.5t-125 28.5h-66v87l218 238l12 -47h-399v107h497v-87l-218 -238l-58 38h39q90 0 150 -25.5t90.5 -71.5t30.5 -106q0 -59 -31 -109t-95 -80.5t-163 -30.5z
" />
    <glyph glyph-name="uni04E1" unicode="&#x4e1;" horiz-adv-x="541" 
d="M238 -201q-76 0 -144.5 22t-112.5 60l46 103q37 -33 91.5 -53t114.5 -20q72 0 111 30t39 84q0 51 -36.5 81.5t-115.5 30.5h-65v87l204 249l12 -47h-374v108h472v-88l-204 -249l-59 39h39q128 0 192 -58.5t64 -152.5q0 -61 -30 -112.5t-90.5 -82.5t-153.5 -31z" />
    <glyph glyph-name="uni04E2" unicode="&#x4e2;" horiz-adv-x="822" 
d="M99 0v700h128v-497l376 497h121v-700h-128v496l-376 -496h-121zM237 788v75h346v-75h-346z" />
    <glyph glyph-name="uni04E3" unicode="&#x4e3;" horiz-adv-x="702" 
d="M84 0v534h125v-352l295 352h114v-534h-125v352l-294 -352h-115zM170 638v75h346v-75h-346z" />
    <glyph glyph-name="uni04E4" unicode="&#x4e4;" horiz-adv-x="822" 
d="M99 0v700h128v-497l376 497h121v-700h-128v496l-376 -496h-121zM507 768q-25 0 -42.5 16.5t-17.5 43.5t17.5 44t42.5 17t42.5 -17t17.5 -44t-17.5 -43.5t-42.5 -16.5zM313 768q-25 0 -42.5 16.5t-17.5 43.5t17.5 44t42.5 17t42.5 -17t17.5 -44t-17.5 -43.5t-42.5 -16.5z
" />
    <glyph glyph-name="uni04E5" unicode="&#x4e5;" horiz-adv-x="702" 
d="M84 0v534h125v-352l295 352h114v-534h-125v352l-294 -352h-115zM440 618q-25 0 -42.5 16.5t-17.5 43.5t17.5 44t42.5 17t42.5 -17t17.5 -44t-17.5 -43.5t-42.5 -16.5zM246 618q-25 0 -42.5 16.5t-17.5 43.5t17.5 44t42.5 17t42.5 -17t17.5 -44t-17.5 -43.5t-42.5 -16.5z
" />
    <glyph glyph-name="uni04E6" unicode="&#x4e6;" horiz-adv-x="845" 
d="M423 -10q-82 0 -151 27t-120 75.5t-79 114t-28 143.5t28 143.5t79 114t120 75.5t150 27q82 0 150.5 -27t119.5 -75.5t79 -114t28 -143.5t-28 -144t-79 -114t-119.5 -75t-149.5 -27zM422 104q53 0 98 18t78 51.5t51.5 78t18.5 98.5t-18.5 98.5t-51.5 78t-78 51.5t-98 18
t-97.5 -18t-78 -51.5t-52 -78t-18.5 -98.5q0 -53 18.5 -98t51.5 -78.5t78 -51.5t98 -18zM519 768q-25 0 -42.5 16.5t-17.5 43.5t17.5 44t42.5 17t42.5 -17t17.5 -44t-17.5 -43.5t-42.5 -16.5zM325 768q-25 0 -42.5 16.5t-17.5 43.5t17.5 44t42.5 17t42.5 -17t17.5 -44
t-17.5 -43.5t-42.5 -16.5z" />
    <glyph glyph-name="uni04E7" unicode="&#x4e7;" horiz-adv-x="646" 
d="M322 -7q-82 0 -146 35.5t-101 97.5t-37 141q0 80 37 141.5t101 96.5t146 35q83 0 147.5 -35t101 -96t36.5 -142q0 -79 -36.5 -141t-101 -97.5t-147.5 -35.5zM322 100q46 0 82 20t56.5 58t20.5 89q0 52 -20.5 89.5t-56.5 57.5t-81 20q-46 0 -81.5 -20t-56.5 -57.5
t-21 -89.5q0 -51 21 -89t56.5 -58t80.5 -20zM419 618q-25 0 -42.5 16.5t-17.5 43.5t17.5 44t42.5 17t42.5 -17t17.5 -44t-17.5 -43.5t-42.5 -16.5zM225 618q-25 0 -42.5 16.5t-17.5 43.5t17.5 44t42.5 17t42.5 -17t17.5 -44t-17.5 -43.5t-42.5 -16.5z" />
    <glyph glyph-name="uni04E8" unicode="&#x4e8;" horiz-adv-x="845" 
d="M422 710q82 0 150.5 -26.5t119.5 -75t79 -114.5t28 -144t-28 -144t-79 -114.5t-119.5 -75t-150.5 -26.5q-81 0 -150 27t-120 75.5t-79 114.5t-28 143t28 143t79 114.5t120 75.5t150 27zM422 596q-46 0 -87 -14.5t-73 -40.5t-53 -62.5t-29 -80.5h483q-7 44 -28 80.5
t-53 62.5t-72.5 40.5t-87.5 14.5zM422 104q47 0 87.5 14t72.5 40.5t53 63t28 80.5h-482q7 -44 28 -80.5t53 -63t73 -40.5t87 -14z" />
    <glyph glyph-name="uni04E9" unicode="&#x4e9;" horiz-adv-x="655" 
d="M327 540q85 0 150 -34.5t102.5 -96.5t37.5 -142q0 -79 -37.5 -141.5t-102.5 -97.5t-149 -35t-149.5 35t-103 97.5t-37.5 141.5q0 80 37.5 142t103 96.5t148.5 34.5zM327 445q-43 0 -78 -16.5t-57.5 -47t-30.5 -72.5h333q-7 42 -30.5 72.5t-58 47t-78.5 16.5zM328 89
q43 0 77.5 16.5t58 47t30.5 72.5h-333q8 -42 31 -72.5t58 -47t78 -16.5z" />
    <glyph glyph-name="uni04EA" unicode="&#x4ea;" horiz-adv-x="845" 
d="M422 710q82 0 150.5 -26.5t119.5 -75t79 -114.5t28 -144t-28 -144t-79 -114.5t-119.5 -75t-150.5 -26.5q-81 0 -150 27t-120 75.5t-79 114.5t-28 143t28 143t79 114.5t120 75.5t150 27zM422 596q-46 0 -87 -14.5t-73 -40.5t-53 -62.5t-29 -80.5h483q-7 44 -28 80.5
t-53 62.5t-72.5 40.5t-87.5 14.5zM422 104q47 0 87.5 14t72.5 40.5t53 63t28 80.5h-482q7 -44 28 -80.5t53 -63t73 -40.5t87 -14zM519 768q-25 0 -42.5 16.5t-17.5 43.5t17.5 44t42.5 17t42.5 -17t17.5 -44t-17.5 -43.5t-42.5 -16.5zM325 768q-25 0 -42.5 16.5t-17.5 43.5
t17.5 44t42.5 17t42.5 -17t17.5 -44t-17.5 -43.5t-42.5 -16.5z" />
    <glyph glyph-name="uni04EB" unicode="&#x4eb;" horiz-adv-x="655" 
d="M327 540q85 0 150 -34.5t102.5 -96.5t37.5 -142q0 -79 -37.5 -141.5t-102.5 -97.5t-149 -35t-149.5 35t-103 97.5t-37.5 141.5q0 80 37.5 142t103 96.5t148.5 34.5zM327 445q-43 0 -78 -16.5t-57.5 -47t-30.5 -72.5h333q-7 42 -30.5 72.5t-58 47t-78.5 16.5zM328 89
q43 0 77.5 16.5t58 47t30.5 72.5h-333q8 -42 31 -72.5t58 -47t78 -16.5zM425 618q-25 0 -42.5 16.5t-17.5 43.5t17.5 44t42.5 17t42.5 -17t17.5 -44t-17.5 -43.5t-42.5 -16.5zM231 618q-25 0 -42.5 16.5t-17.5 43.5t17.5 44t42.5 17t42.5 -17t17.5 -44t-17.5 -43.5
t-42.5 -16.5z" />
    </font>
</defs>
</svg>
